<?xml version="1.0" standalone="no"?>
<!DOCTYPE svg PUBLIC "-//W3C//DTD SVG 1.1//EN" "http://www.w3.org/Graphics/SVG/1.1/DTD/svg11.dtd">
<svg xmlns="http://www.w3.org/2000/svg"><defs><font id="flaticon" horiz-adv-x="512"><font-face units-per-em="512" ascent="448" descent="-64" x-height="240" cap-height="480"/><missing-glyph horiz-adv-x="512"/><glyph unicode="&#xE000;" glyph-name="afghanistan" horiz-adv-x="512" d="M416.512 252.832c-21.616 -16.832 -25.456 -13.952 -26.256 12.144 c-0.336 9.968 -3.424 19.12 -12.912 22.496c-9.712 3.488 -12.976 -7.28 -17.616 -12.608c-14.592 -16.736 -42.496 -25.488 -64.256 -18.768 c-38.256 11.84 -45.424 9.152 -71.6 -24.208c-3.584 -4.528 -10.448 -6.384 -15.712 -9.584c-6.576 -3.952 -17.168 -1.584 -18.528 -14.096 c-0.48 -4.88 -10.528 -8.144 -13.68 -6.032c-23.808 16.016 -28.032 -1.76 -38.768 -17.6c-11.488 -16.992 -5.488 -32.928 -2.576 -47.376 c2.384 -11.952 -7.984 -31.52 10.976 -36.464c22.48 -5.84 14.64 -14.544 5.328 -25.36c-4.032 -4.688 -7.76 -9.648 -12.256 -15.264 c34.416 -17.056 69.44 -12 104.256 -7.6c14.496 1.824 28.176 4.848 25.744 25.248c-0.848 7.408 5.808 13.552 12.064 16.24 c24.752 10.576 59.744 6.528 63.216 46.224c0.112 1.04 2.24 2.56 3.504 2.656c19.68 1.664 11.84 13.072 7.136 22.944 c22.032 0.384 43.936 25.904 35.664 44.032c-7.424 16.288 0.64 19.504 11.536 25.728c10.032 5.776 20.304 8.432 31.312 7.44 c13.056 -1.152 24.784 0.464 38.176 18.304C450.176 254.496 434.272 266.672 416.512 252.832z"/><glyph unicode="&#xE001;" glyph-name="albania" horiz-adv-x="512" d="M277.328 331.872c-2.704 0.496 -5.904 -1.264 -8.784 -2.272 c-9.888 -3.424 -21.6 -12.192 -21.568 9.056c0 5.664 -5.888 5.584 -8.368 2.528c-12.864 -15.696 -31.536 -30.32 -33.248 -49.872 c-0.992 -11.264 -4.512 -32.384 11.632 -40.208c17.088 -8.224 14.144 -18.096 6.928 -29.888c-3.808 -6.24 -8.752 -13.952 -6.448 -19.6 c14.72 -36.128 -20.416 -71.056 -1.76 -106.88c-18.496 -28.016 9.568 -30.336 22.832 -37.552c15.056 -8.224 25.36 -18.48 28.864 -34.576 c2.832 -13.024 11.024 -21.648 22.352 -17.712c9.536 3.264 21.504 11.984 15.456 26.976c-4.48 11.152 4.176 16.368 10.608 16.72 c17.936 0.896 20.432 14.032 24.944 26.32c3.216 8.784 6.016 17.008 16.688 20.896c8.272 3.024 15.312 13.056 11.504 20.672 c-4.976 9.904 0.32 25.632 -13.52 30.048c-24.464 7.792 -33.344 26.64 -36.912 49.152c-3.68 23.312 5.808 45.344 8.896 68.016 C327.6 276.144 288.592 329.76 277.328 331.872z"/><glyph unicode="&#xE002;" glyph-name="algaria" horiz-adv-x="512" d="M286.016 12.384c3.232 -5.808 31.568 -0.928 44.352 10.592 c24.128 21.728 52.496 36.8 79.392 54.256c5.776 3.76 16.432 4.848 14.64 15.584c-1.504 9.024 -9.28 11.248 -16.864 14.256 c-14.88 5.888 -19.008 16.976 -17.488 33.248c3.664 39.216 2.8 77.936 -22.928 111.648c-4.864 6.368 -16.912 15.504 -11.6 20.816 c16.928 16.944 7.12 38.576 14 56.544c-19.312 5.952 -38.32 -2.736 -57.2 -1.376c-40.512 2.912 -76.336 -8.544 -110.112 -29.616 c-4.56 -2.832 -7.328 -4.016 -4.48 -10.24c6.4 -14.016 1.696 -30.72 13.776 -46.64c-25.6 3.712 -39.024 -7.776 -52.304 -24.016 c-17.84 -21.824 -51.312 -17.152 -71.2 -37.2c0 -9.44 0 -18.88 0 -28.336c57.056 -35.136 114.704 -69.424 165.152 -114.192 C263.28 28.72 277.712 27.328 286.016 12.384z"/><glyph unicode="&#xE003;" glyph-name="andorra" horiz-adv-x="512" d="M146.112 167.392c17.808 -25.04 13.792 -39.216 -15.44 -51.664 c-6.368 -2.672 -12 -5.632 -12.448 -12.336C117.76 96.496 125.136 100 128.688 98.08c5.792 -3.2 6.624 -8.24 6.448 -14 c-0.896 -31.072 12.896 -47.952 45.376 -46.688c2.336 0.08 4.768 -0.032 7.04 -0.576c36.624 -8.768 50.288 -1.872 60.896 29.472 c8.368 5.424 11.36 -16.832 17.616 -3.92c7.232 14.88 17.488 12.608 29.008 12.608c34.128 -0.048 38.912 3.808 47.056 35.28 c1.52 5.888 0.368 11.488 11.968 4.32c24.544 -15.152 35.504 -2.496 45.024 25.904c7.728 23.072 -3.232 63.2 41.776 63.856 c4.352 0.08 10.672 4.112 10.032 11.232c-0.768 8.304 -7.152 6.944 -12.416 6.256c-8.64 -1.104 -14.496 6.368 -21.872 7.024 c-19.968 1.808 -22.64 8.912 -10.656 24.624c5.216 6.864 3.552 11.76 -1.6 12.192c-34.736 2.784 -67.984 15.568 -103.456 14.144 c-15.264 -0.608 -29.36 3.92 -38.4 19.712c-7.28 12.752 -19.248 17.552 -35.424 12.88C216.416 309.328 206.24 301.408 193.76 305.28 c-20.128 6.24 -35.264 -6.768 -28.704 -27.408c5.664 -17.792 -1.024 -21.44 -15.744 -25.664c-13.808 -3.968 -25.392 -25.104 -21.36 -29.248 c15.552 -16.16 3.936 -21.36 -5.504 -31.28c-5.76 -6.08 -7.152 -16.336 -10.528 -24.752C124.544 161.968 134.848 183.232 146.112 167.392z"/><glyph unicode="&#xE004;" glyph-name="angola" horiz-adv-x="512" d="M167.12 300c13.504 -5.104 4.48 10.336 8.72 15.136 c4.544 5.12 11.376 8.32 13.04 15.792c-6.288 0 -12.576 0 -18.896 0c-0.208 -1.44 0.096 -3.712 -0.688 -4.192 C155.76 318.528 161.408 302.16 167.12 300zM186.8 17.088c5.008 2.16 9.28 -0.64 12.784 -3.808 c7.84 -7.088 16.672 -5.568 26.304 -5.408c30.56 0.48 62.784 7.056 91.312 -3.328c41.264 -15.008 80.336 -14.336 122.08 -2.416 c-33.136 36.976 -33.136 36.976 -33.136 78.88c0 4.72 0.736 9.568 -0.128 14.112c-3.792 20.224 5.024 26.704 24.064 23.36 c17.408 -3.04 26.608 2.016 26.624 22.272c0.032 28.08 1.328 27.952 -28.368 27.12c-4.208 -0.112 -8.464 1.664 -12.704 2.672 c0 -0.064 0 -0.128 0 -0.208l-0.48 0.336c0.144 -0.032 0.32 -0.096 0.464 -0.128c0.608 22.24 -15.84 41.008 -12.544 64.704 c0.72 5.248 9.76 27.696 -11.808 25.664c-12.624 -1.2 -19.584 10.96 -31.68 8.768c-7.216 -1.312 -14.464 -1.152 -15.904 -10.416 c-3.712 -24.112 -25.104 -11.328 -37.536 -17.056c-11.296 -5.2 -14.016 9.808 -18.816 16.8c-4.608 6.72 -7.024 15.344 -8.816 23.504 c-1.744 7.984 -5.488 13.952 -13.424 13.776c-26.624 -0.512 -53.312 3.488 -79.872 -0.64c-14.624 -2.256 -20.448 -6.912 -10.08 -22.688 c8.672 -13.216 21.872 -31.632 16.112 -44.176c-8.736 -19.12 -0.32 -30.944 6.64 -44.432c8.288 -16.032 12.016 -35.52 -0.192 -46.032 c-27.024 -23.296 -28.288 -56 -39.424 -85.184c-4.88 -12.8 -6.56 -28.24 -1.04 -38.24C162.144 5.984 176.784 12.736 186.8 17.088z"/><glyph unicode="&#xE005;" glyph-name="antigua" horiz-adv-x="512" d="M303.76 34.96c11.024 -0.608 37.728 25.504 38.336 37.504 c0.704 13.824 -33.712 40.656 -54.56 42.496c-10.448 0.976 -36.864 -25.04 -37.152 -36.544C249.632 51.28 267.088 37.024 303.76 34.96zM274.4 370.096c-5.024 0.992 -11.216 7.136 -14.176 0.528 c-7.392 -16.48 5.184 -31.264 6.368 -47.184c0.08 -0.784 0.08 -1.76 0.48 -2.272c10.784 -12.8 25.616 -22.912 40.624 -23.776 c10.08 -0.576 6.624 16.704 6.736 25.696C322.144 357.456 300.048 364.976 274.4 370.096z"/><glyph unicode="&#xE006;" glyph-name="argentina" horiz-adv-x="512" d="M255.2 75.552c-0.528 1.84 4.176 4.72 4.592 7.376 c2.368 14.8 41.616 20.752 10.688 43.728c-0.656 0.48 0.336 5.504 1.584 6.032c11.328 4.784 11.84 19.664 18.992 24.256 c15.376 9.872 -1.728 12.336 -1.392 17.792c1.008 16.096 23.168 -5.152 22.352 11.216c-0.96 19.856 12.736 14.912 23.184 16.96 c22.064 4.368 30.096 18.144 21.12 35.616c-11.712 22.864 -8.752 42.816 9.536 60.608c6.192 6 13.76 10.528 19.76 16.592 c4.224 4.32 4.192 10.032 -0.624 14.608c-2.736 2.576 -6.272 2.576 -7.616 -0.928c-3.424 -8.832 -8.336 -14.832 -18.72 -14.336 c-18.224 0.912 -1.808 13.36 -6.304 18.832c-0.528 0.56 -0.848 1.616 -1.456 1.792c-20.656 6.384 -33.664 28.832 -57.12 28.224 c-14.56 4.752 -19.808 -0.608 -27.04 -13.68c-12.72 -23.04 -20.272 -47.648 -25.52 -72.384c-2.944 -13.76 4.272 -29.792 -1.68 -44.688 c-7.28 -18.032 -9.36 -37.216 -11.392 -56.24c-3.168 -29.744 7.504 -60.832 -12.4 -89.424c-3.472 -4.976 6.64 -24.064 22.624 -26.304 C249.712 59.6 260.288 57.776 255.2 75.552zM257.68 48.24c-4.944 -28.432 14.272 -19.344 27.008 -17.952 C276.208 35.936 267.712 41.568 257.68 48.24z"/><glyph unicode="&#xE007;" glyph-name="armenia" horiz-adv-x="512" d="M104.8 279.68c12.112 -14.192 23.296 -31.376 9.152 -48.176 c-19.344 -22.944 3.184 -40.352 5.584 -59.76c1.168 -9.648 22.144 -16.432 34.848 -13.152c29.392 7.584 48.032 -7.376 65.792 -26.08 c9.824 -10.336 19.664 -17.568 34.416 -9.264c8.384 4.672 13.584 -1.168 17.344 -7.264c12.8 -20.64 30.192 -26.448 52.88 -18.256 c5.808 2.064 15.376 8.912 16.56 -2.96c2.768 -28.336 25.664 -46.384 33.968 -72.176c7.104 -22.128 25.6 -1.008 38.976 -4.032 c9.968 -2.24 5.184 10.336 6.608 16.384c1.728 7.344 -16.176 20.192 6.72 22.08c3.76 0.288 -0.416 6.72 -2.832 9.216 c-5.232 5.36 -11.008 10.192 -17.312 15.952c5.088 5.68 16.304 6.816 11.92 15.952c-3.584 7.456 -12.304 11.568 -19.6 10.672 c-8.688 -1.024 -14.768 0.656 -21.216 6c-16.592 13.76 -33.664 26.976 -53.056 42.384c5.68 0.32 8.528 1.072 11.136 0.544 c15.744 -3.152 23.248 5.44 26.752 18.976c4 15.472 -10.4 15.024 -18.304 19.488c-13.712 7.808 -26.624 16.224 -36.208 29.232 c-7.616 10.304 -11.008 19.216 3.472 26.384c12.96 6.4 13.744 13.328 1.456 22c-7.488 5.296 -12.912 12.624 -23.888 12.896 c-4.128 0.112 -14.064 -0.24 -14.704 10.448c-0.88 15.984 -15.52 25.632 -30.384 21.552c-7.216 -1.984 -12.992 -7.056 -21.632 -6.448 c-44.496 3.104 -87.392 -9.68 -132.336 -14.896C93.168 287.648 100.368 284.848 104.8 279.68z"/><glyph unicode="&#xE008;" glyph-name="aruba" horiz-adv-x="512" d="M445.936 34.448c15.952 0.24 18.448 4.272 13.84 20.592 c-3.136 11.296 -3.664 23.664 -8.56 34.016c-9.616 20.304 -7.616 46.816 -25.824 61.456c-19.136 15.36 -41.808 29.84 -53.456 49.376 c-16.672 27.904 -44.08 36.384 -66.832 53.376c-16.448 12.224 -35.824 19.296 -50.592 34.992c-24.864 26.384 -44.192 58.32 -76.528 77.472 C171.392 369.6 166.032 377.664 157.808 371.504C148.624 364.592 157.808 358.944 159.76 352c7.328 -26.336 26.32 -51.696 1.648 -81.168 c-7.248 -8.64 -25.04 -27.488 -5.472 -44.896c30.496 -27.152 59.584 -56.112 91.856 -80.896c11.024 -8.48 28.112 -9.376 39.28 -21.248 c34.624 -36.656 81.44 -54.064 125.824 -73.856C423.76 45.088 431.312 30.96 445.936 34.448zM362.256 81.616c-16.192 10.336 -28.176 18.176 -47.68 5.952 C331.84 84.752 343.92 77.264 362.256 81.616z"/><glyph unicode="&#xE009;" glyph-name="australia" horiz-adv-x="512" d="M366.24 274.464c-3.584 27.232 -24.416 46.08 -27.904 75.952 c-12.336 -16.752 -13.664 -31.84 -14.912 -47.136c-0.72 -8.8 -5.168 -22.064 -11.968 -20.032c-12.8 3.84 -24.528 13.344 -34.896 22.56 c-7.04 6.224 -1.712 14.224 3.536 20.496c4.784 5.664 2.064 16.64 -0.992 14.72c-15.888 -9.84 -31.888 11.984 -47.76 -2.944 c-12.72 -11.952 -21.696 -31.68 -48.336 -22.944c-7.248 2.368 -29.488 -19.2 -33.264 -32.976c-5.456 -19.872 -17.888 -25.568 -32.976 -31.568 c-44.592 -17.664 -46.448 -38.112 -25.024 -79.152c8.192 -15.648 19.088 -30.4 15.376 -49.504c-2.752 -14.096 11.648 -16.352 15.36 -13.904 c17.28 11.536 39.888 9.984 55.664 23.6c28.816 24.912 61.472 22.752 83.968 -6.816c4.544 -5.952 6.976 -7.52 11.152 -0.64 c1.152 -1.424 2.288 -2.848 3.44 -4.272c8.576 -8.368 17.04 -15.456 22.576 -27.824c8.784 -19.696 64.032 -23.696 75.36 -4.528 c11.008 18.672 24.736 35.696 34.368 55.136c15.648 31.648 6.16 58.88 -11.936 86.896C387.12 245.056 368.624 256.176 366.24 274.464z"/><glyph unicode="&#xE00A;" glyph-name="austria" horiz-adv-x="512" d="M165.904 122.624c18.784 10.96 37.68 20.368 54.576 -3.312 c3.392 -4.72 8.576 -6.672 14.368 -6.752c36.72 -0.528 73.296 -25.344 110.336 -0.752c2.208 1.52 6.16 0.256 9.296 0.48 c35.76 2.528 51.568 17.808 57.856 55.824c-0.24 -0.08 -0.432 -0.16 -0.672 -0.24c-0.048 -0.032 0.704 0.416 0.704 0.416 c0 -0.08 -0.032 -0.112 -0.032 -0.192c13.024 3.92 21.968 9.504 22.976 18.432c0.176 1.472 -0.032 3.088 -0.32 4.752 c-0.064 0.336 0.016 0.672 -0.064 1.056c-0.432 1.92 -1.232 4.032 -2.32 6.272c-0.064 0.144 -0.08 0.272 -0.144 0.416 c-1.2 2.384 -2.768 4.928 -4.736 7.648c-1.872 2.576 -1.664 7.552 -0.832 11.008c3.456 14.144 -7.92 18.144 -15.968 17.216 c-18.832 -2.16 -34.72 5.76 -51.792 9.952c-9.488 2.336 -19.2 6.672 -25.584 -8.336c-4.112 -9.664 -19.264 -16.752 -27.728 -10.672 c-13.008 9.328 -22 3.6 -29.84 -3.088c-9.792 -8.304 -21.936 -13.744 -30.496 -22.016c-11.2 -10.752 5.808 -22.224 6.608 -34.208 c0.032 -0.528 -1.008 -1.104 -3.376 -3.68c-7.888 10.72 -19.792 11.744 -31.744 10.192c-23.392 -3.072 -45.008 -21.328 -70.496 -7.76 c-2.336 1.216 -9.392 -0.976 -10.16 -3.04c-4.816 -13.2 -9.936 -8.256 -16.432 -1.52c-5.312 5.488 -13.84 8.272 -18.32 1.904 c-3.872 -5.488 -6.976 -14.192 -2.608 -22.048C104.832 129.92 155.696 116.672 165.904 122.624z"/><glyph unicode="&#xE00B;" glyph-name="azerbaijan" horiz-adv-x="512" d="M96.976 294.496c25.568 -39.392 58.144 -73.776 81.632 -114.624 c4.016 -7.008 9.472 -13.12 16.624 -16.144c25.456 -10.8 44.128 -29.712 60.8 -50.624c7.904 -9.872 17.84 -16.064 29.072 -18.704 c46.368 -10.928 93.008 -20.752 142.704 -31.712c-3.04 8.448 -4.448 13.472 -6.592 18.112c-10.4 22.784 -29.44 45.456 -29.488 68.224 c-0.064 31.584 -18.272 41.232 -38.656 52.768c-11.392 6.448 -11.328 14.432 -8.944 25.584c8.08 37.904 -3.536 48.24 -41.104 37.52 c-5.28 -1.504 -10.896 -2.816 -15.36 -5.712c-24.72 -16.08 -45.648 -6.528 -66.288 8.56c-5.76 4.224 -10.128 12.912 -20.112 7.296 c-13.792 -7.744 -14.128 0.544 -15.664 11.872c-4.144 30.752 -24.88 42.608 -54.192 33.248c-14.144 -4.496 -28.288 -9.392 -43.36 -9.92 c0 -3.152 0 -6.304 0 -9.456C92.816 301.312 95.04 297.472 96.976 294.496z"/><glyph unicode="&#xE00C;" glyph-name="bahamas" horiz-adv-x="512" d="M86.464 366.592c0 -3.136 0 -6.304 0 -9.456c7.232 -4.16 13.264 -14.16 22.576 -9.824 c14.304 6.64 33.616 -1.12 44.096 16.144c3.472 5.664 8.24 2.16 11.728 -1.2c9.056 -8.672 16.064 -17.872 5.456 -30.256 c-5.872 -6.832 -1.872 -11.248 3.888 -15.232c4.304 -2.976 8.448 -3.856 12.672 0.224c9.456 9.216 9.024 36.512 -0.272 46.496 c-5.232 5.568 -13.216 8.8 -15.184 17.248c-11.008 0 -22.016 0 -33.04 0C132.784 374.736 125.536 376.128 118.48 376.432 C106.64 376.976 95.472 375.28 86.464 366.592zM360.352 40.752c3.152 0 6.304 0 9.424 0c16.176 5.664 37.392 8.992 37.872 32.784 c0.128 6.16 1.968 11.616 -6.832 14.368c-6.56 2.032 -11.024 -1.952 -11.424 -8.272c-0.448 -6.64 3.424 -10.064 -12.016 -10.304 C357.104 68.976 354.352 57.232 360.352 40.752zM426.816 94.432c0.8 -6.304 6.592 -7.92 10.48 -5.888c12.528 6.624 24.288 -1.568 36.384 -0.56 c0 4.72 0 9.424 0 14.144c-12.48 4.768 -20.512 13.568 -38.544 2.992C429.504 101.776 425.984 100.736 426.816 94.432zM121.456 239.04c13.216 -7.536 19.392 -20.368 24.784 -33.12c3.408 -8.112 7.84 -11.024 15.568 -10.272 c9.712 0.96 9.744 8.448 10.032 19.376c-8.8 17.408 -9.568 41.28 -23.248 60.64c-4.336 6.144 -8.992 11.408 -16.912 9.952 c-9.536 -1.776 -4.624 -9.328 -5.456 -14.992c-0.736 -5.072 -3.92 -10.304 -7.424 -14.272C112.304 248.992 114.272 243.152 121.456 239.04zM210.224 285.472c7.216 -2.496 20.432 -5.616 16.56 -15.6c-4.848 -12.576 -2.336 -22.72 8.224 -23.488 c10.96 -0.848 6.976 14.672 12.608 22.432c2.96 17.056 -13.536 26.592 -27.6 34.624c-8.448 4.8 -15.008 4.72 -19.28 -4.112 C196.336 290.112 202.4 288.16 210.224 285.472zM329.2 141.392c3.216 -2.832 9.248 -2.528 9.712 -8.992c-2.112 -1.872 -4.288 -4.192 -6.816 -6 c-4.48 -3.184 -6.48 -8.176 -3.408 -11.984c4.416 -5.504 9.648 -1.76 14.336 1.472c9.824 6.8 19.216 13.52 17.248 27.808 c-4.032 29.136 -13.568 4.896 -22.288 12.416c-3.808 3.296 -8.848 2.992 -11.84 -2.32C323.392 148.864 325.76 144.512 329.2 141.392zM276.896 192.912c3.664 -15.472 6.608 -31.536 22.512 -40.048c2.576 -1.392 5.968 -3.392 8.112 -2.656 c2.16 0.72 3.232 4.576 5.2 7.744c-11.728 18.736 -19.376 31.136 -26.256 41.6c-0.832 1.232 -5.312 1.92 -6.192 0.992 C278.384 198.656 276.384 195.168 276.896 192.912zM270.624 220.944c-0.688 -6.608 8.416 -4.688 13.584 -3.52c1.872 0.368 5.408 2.528 4.8 4.528 c-8.912 28.976 -24.144 35.936 -25.248 35.856c-1.456 -0.48 -3.712 -0.48 -4.272 -1.44C251.296 241.232 272.064 235.12 270.624 220.944zM407.664 117.76c3.888 -2.464 8.112 2.448 8.544 8.8c-12.144 23.568 -7.504 8.08 -23.536 10.448 c-5.008 0.736 -9.248 -3.584 -8.032 -8.8C387.52 115.808 400.256 122.448 407.664 117.76zM237.92 194.864c2.464 -10.768 12.56 -12.608 20.992 -15.456c4.08 -1.344 8.528 2.848 7.024 6.64 c-3.536 9.312 -12.096 13.376 -20.208 16.272C240.32 201.84 236.928 199.28 237.92 194.864zM185.04 271.36c-0.528 7.072 -5.68 9.152 -11.376 9.424c-6.448 0.272 -13.52 -1.312 -14.688 -8.72 c-1.152 -7.008 5.152 -9.072 10.848 -9.264C176.336 262.56 182.24 264.368 185.04 271.36zM313.088 215.92c0.32 -5.232 2.496 -9.632 8.336 -8.656c6.064 1.008 8.336 6.32 9.712 11.712 c-1.2 5.184 -3.92 9.184 -9.424 8.608C315.2 226.944 312.752 222.176 313.088 215.92zM86.464 366.592c0 -3.136 0 -6.304 0 -9.456c7.232 -4.16 13.264 -14.16 22.576 -9.824 c14.304 6.64 33.616 -1.12 44.096 16.144c3.472 5.664 8.24 2.16 11.728 -1.2c9.056 -8.672 16.064 -17.872 5.456 -30.256 c-5.872 -6.832 -1.872 -11.248 3.888 -15.232c4.304 -2.976 8.448 -3.856 12.672 0.224c9.456 9.216 9.024 36.512 -0.272 46.496 c-5.232 5.568 -13.216 8.8 -15.184 17.248c-11.008 0 -22.016 0 -33.04 0C132.784 374.736 125.536 376.128 118.48 376.432 C106.64 376.976 95.472 375.28 86.464 366.592zM360.352 40.752c3.152 0 6.304 0 9.424 0c16.176 5.664 37.392 8.992 37.872 32.784 c0.128 6.16 1.968 11.616 -6.832 14.368c-6.56 2.032 -11.024 -1.952 -11.424 -8.272c-0.448 -6.64 3.424 -10.064 -12.016 -10.304 C357.104 68.976 354.352 57.232 360.352 40.752zM426.816 94.432c0.8 -6.304 6.592 -7.92 10.48 -5.888c12.528 6.624 24.288 -1.568 36.384 -0.56 c0 4.72 0 9.424 0 14.144c-12.48 4.768 -20.512 13.568 -38.544 2.992C429.504 101.776 425.984 100.736 426.816 94.432zM121.456 239.04c13.216 -7.536 19.392 -20.368 24.784 -33.12c3.408 -8.112 7.84 -11.024 15.568 -10.272 c9.712 0.96 9.744 8.448 10.032 19.376c-8.8 17.408 -9.568 41.28 -23.248 60.64c-4.336 6.144 -8.992 11.408 -16.912 9.952 c-9.536 -1.776 -4.624 -9.328 -5.456 -14.992c-0.736 -5.072 -3.92 -10.304 -7.424 -14.272C112.304 248.992 114.272 243.152 121.456 239.04zM210.224 285.472c7.216 -2.496 20.432 -5.616 16.56 -15.6c-4.848 -12.576 -2.336 -22.72 8.224 -23.488 c10.96 -0.848 6.976 14.672 12.608 22.432c2.96 17.056 -13.536 26.592 -27.6 34.624c-8.448 4.8 -15.008 4.72 -19.28 -4.112 C196.336 290.112 202.4 288.16 210.224 285.472zM329.2 141.392c3.216 -2.832 9.248 -2.528 9.712 -8.992c-2.112 -1.872 -4.288 -4.192 -6.816 -6 c-4.48 -3.184 -6.48 -8.176 -3.408 -11.984c4.416 -5.504 9.648 -1.76 14.336 1.472c9.824 6.8 19.216 13.52 17.248 27.808 c-4.032 29.136 -13.568 4.896 -22.288 12.416c-3.808 3.296 -8.848 2.992 -11.84 -2.32C323.392 148.864 325.76 144.512 329.2 141.392zM276.896 192.912c3.664 -15.472 6.608 -31.536 22.512 -40.048c2.576 -1.392 5.968 -3.392 8.112 -2.656 c2.16 0.72 3.232 4.576 5.2 7.744c-11.728 18.736 -19.376 31.136 -26.256 41.6c-0.832 1.232 -5.312 1.92 -6.192 0.992 C278.384 198.656 276.384 195.168 276.896 192.912zM270.624 220.944c-0.688 -6.608 8.416 -4.688 13.584 -3.52c1.872 0.368 5.408 2.528 4.8 4.528 c-8.912 28.976 -24.144 35.936 -25.248 35.856c-1.456 -0.48 -3.712 -0.48 -4.272 -1.44C251.296 241.232 272.064 235.12 270.624 220.944zM407.664 117.76c3.888 -2.464 8.112 2.448 8.544 8.8c-12.144 23.568 -7.504 8.08 -23.536 10.448 c-5.008 0.736 -9.248 -3.584 -8.032 -8.8C387.52 115.808 400.256 122.448 407.664 117.76zM237.92 194.864c2.464 -10.768 12.56 -12.608 20.992 -15.456c4.08 -1.344 8.528 2.848 7.024 6.64 c-3.536 9.312 -12.096 13.376 -20.208 16.272C240.32 201.84 236.928 199.28 237.92 194.864zM185.04 271.36c-0.528 7.072 -5.68 9.152 -11.376 9.424c-6.448 0.272 -13.52 -1.312 -14.688 -8.72 c-1.152 -7.008 5.152 -9.072 10.848 -9.264C176.336 262.56 182.24 264.368 185.04 271.36zM313.088 215.92c0.32 -5.232 2.496 -9.632 8.336 -8.656c6.064 1.008 8.336 6.32 9.712 11.712 c-1.2 5.184 -3.92 9.184 -9.424 8.608C315.2 226.944 312.752 222.176 313.088 215.92z"/><glyph unicode="&#xE00D;" glyph-name="bahrain" horiz-adv-x="512" d="M232.592 125.056c35.424 -31.28 56.352 -70.352 65.744 -118.384 c14.992 15.776 27.328 31.584 30.704 50.928c5.52 31.584 10.528 63.632 11.296 95.616c1.28 55.184 12.56 114.208 -48.704 156.56 c11.44 0 16.096 -0.16 20.752 0.032c6.608 0.32 14.672 -3.504 18.592 5.376c4.832 10.928 -6.224 16.576 -9.04 24.992 c-3.376 10.112 -11.424 5.616 -17.536 2.496c-12.928 -6.608 -24.944 -5.04 -38.128 0.272c-15.648 6.304 -35.024 10.88 -43.536 -8.112 c-10.384 -23.2 -17.84 -47.536 -0.272 -73.44c20.368 -29.984 28.128 -62.72 4.256 -96.144C216.352 150.736 220.336 135.856 232.592 125.056z"/><glyph unicode="&#xE00E;" glyph-name="bangladesh" horiz-adv-x="512" d="M400.48 35.264c-3.952 37.264 -3.12 73.36 -14.848 107.936 c-3.952 11.648 2.24 31.008 -13.424 33.2c-17.392 2.416 -15.6 -18.64 -22.192 -29.424c-0.352 -0.592 0.064 -1.6 -0.128 -2.336 c-2.688 -9.6 -4.448 -10.72 -12.88 -2.416c-25.056 24.592 -22.144 48.976 10.464 60.528c14.896 5.312 23.52 14.272 28.64 28.176 c1.552 4.192 0.592 10.224 6.256 11.664c22.608 5.568 3.552 10.992 -0.544 14.336c-6.752 5.52 -15.088 6.448 -24.288 6.112 c-24.992 -0.944 -50.048 -0.736 -75.056 -0.112c-31.344 0.8 -36.576 6.272 -37.632 37.504c-0.208 6.368 -0.272 12.4 -3.84 18.016 c-2.752 4.32 -5.728 8.368 -10.304 2.768c-11.888 -14.592 -18.144 -6.448 -24.112 5.264c-3.008 5.968 -4.24 18.224 -13.696 3.584 c-2.832 -4.464 -7.952 -1.232 -10.976 3.616c-3.712 5.872 -8.576 11.008 -15.808 12.256c-7.6 -4.64 2.816 -12.832 -5.296 -18.48 c-19.024 -13.2 -13.584 -25.008 2.784 -37.568c6.544 -5.008 12.768 -7.76 20.048 -10.336c2.8 -1.008 4.656 -5.84 6.112 -9.264 c1.68 -3.968 -1.664 -6.56 -4.56 -5.728c-13.952 4.256 -16.784 -6.752 -24.32 -14.304c-21.408 -21.36 -22.832 -24.16 5.648 -34.192 c18.576 -6.544 18.208 -15.344 11.568 -29.136c-3.152 -6.56 -5.488 -12.64 -0.608 -19.792c17.248 -25.12 16.56 -55.6 23.424 -83.68 c6.384 -26.176 15.024 -30.896 36.976 -14.064c8.416 6.464 14.72 18.832 22.592 -0.688c2.4 -5.92 7.84 -1.28 10.8 2.608 c3.232 4.272 2.8 12.032 12.432 9.184c16 -4.688 17.616 6.88 19.392 18.48c0.624 4.08 -4.704 9.424 4.896 12.56 c26.88 8.752 53.072 -7.536 49.072 -35.584c-4 -27.904 13.872 -44.848 21.28 -65.84C391.04 15.92 355.184 50.896 400.48 35.264z"/><glyph unicode="&#xE00F;" glyph-name="barbados" horiz-adv-x="512" d="M344.8 230.4c-29.2 36 -61.744 69.52 -88.304 107.328 c-21.872 31.12 -43.664 38.384 -79.44 24.784C156 354.528 148.736 346.192 151.2 325.056c5.76 -49.28 3.424 -98.848 4.64 -148.304 c0.368 -15.424 4.736 -28.368 11.424 -42.256c16.976 -35.184 43.024 -58.032 79.76 -70.592c18.4 -6.304 35.856 -15.52 53.344 -24.208 c10.192 -5.072 17.68 -4.08 27.6 2.368c45.184 29.36 72.288 75.936 111.904 113.056c-8.368 6.032 -15.568 10.72 -22.144 16.144 C393.616 191.2 365.04 205.424 344.8 230.4z"/><glyph unicode="&#xE010;" glyph-name="belarus" horiz-adv-x="512" d="M453.904 154.4c4.544 6.768 -7.328 18.096 -11.568 18.608 c-14.4 1.744 -19.248 14.064 -27.168 21.584c-12.304 11.664 -25.392 23.872 -21.936 45.632c3.008 18.832 -5.536 35.008 -27.36 36.976 c-12.688 1.104 -22.832 -1.536 -37.008 7.136c-27.696 17.008 -61.76 2.736 -82.624 -14.72c-14.224 -11.904 -29.008 -31.424 -39.024 -49.856 c-5.968 -11.008 -11.952 -17.792 -22.064 -24.48c-17.36 -11.504 -36.256 -12.384 -55.344 -12.464c-2.192 -12.064 3.92 -20.752 7.136 -30.24 c2.976 -8.768 10.304 -20.72 3.2 -26.464c-14.272 -11.584 -28.512 -15.184 -9.808 -39.056c12.336 -15.696 7.008 -22.016 27.488 -7.248 c4.24 3.024 8.16 3.76 12.848 4.224c56.112 5.584 108.288 -17.568 163.008 -22.464c14.336 -1.28 30.704 9.328 43.152 -5.968 c1.552 1.472 4.544 3.072 4.432 4.336c-3.888 31.12 18.048 33.232 43.536 34.976c-11.168 10.08 -5.056 22.336 -10.224 31.856 c-7.808 14.368 -13.84 25.408 11.504 14.992C438.048 136.816 448.496 146.416 453.904 154.4z"/><glyph unicode="&#xE011;" glyph-name="belgium" horiz-adv-x="512" d="M472.272 168.864c-13.2 22.672 -29.84 40.416 -59.52 40.784 c5.024 9.952 9.344 17.856 13.056 26.08c2.32 5.104 4.208 12.688 -2.608 14.064c-12.8 2.624 -20.528 17.504 -35.776 13.616 c-8.32 -2.112 -18.016 0.848 -20.448 8.08c-6.992 21.072 -25.696 11.408 -37.616 13.648c-19.616 3.68 -38.016 -7.072 -53.568 -20.4 c-6.16 -5.264 -58.32 -5.232 -60.896 0.928c-6.064 14.4 -14.88 7.952 -22.8 4.752c-12.304 -4.912 -23.6 -12.64 -36.144 -16.512 c-20.768 -6.416 -21.072 -19.856 -13.456 -35.28c6.64 -13.456 15.296 -27.04 34.336 -18.4c8.72 3.92 17.2 3.312 18.864 -6.272 c2.976 -16.976 12.304 -23.568 28.4 -23.696c6.608 -0.08 9.024 -4.336 10.192 -10.608c1.312 -7.088 4.48 -7.76 13.008 -6.64 c24.832 3.328 34.592 -5.68 32.624 -30.672c-0.896 -11.488 2.336 -13.296 11.408 -14.368c18.88 -2.24 34.352 3.104 45.472 20.688 c-0.224 -15.472 -2.928 -32.48 11.104 -38.624c16.672 -7.312 32.08 -14.896 45.504 -27.328c10.272 -9.536 23.392 -3.568 32.624 1.072 c11.024 5.536 4.416 15.44 -0.464 24.208c-8.8 15.712 2.512 38.464 20.72 43.68C465.776 137.184 479.264 156.832 472.272 168.864z"/><glyph unicode="&#xE012;" glyph-name="belize" horiz-adv-x="512" d="M342.72 329.248c3.776 13.392 5.28 27.84 -16.704 26.32 c-5.392 -0.384 -11.76 -0.624 -13.728 6.16c-1.504 5.104 3.088 13.28 -8.096 12.272c-8.688 -0.784 -12.112 -7.2 -14.448 -13.584 c-6.912 -18.752 -21.168 -32.816 -30.752 -49.824c-5.344 -9.632 -12.864 -15.92 -24.928 -8.032c-17.232 11.248 -21.424 2.368 -22.032 -14.112 c-2.528 -68.912 -5.616 -137.808 -8.48 -206.688c-0.16 0 -0.352 0 -0.544 0c0 -8.64 -1.008 -17.456 0.304 -25.856c1.12 -6.992 -6.832 -19.2 7.344 -20.032 c10.912 -0.64 23.824 -7.632 31.152 10.704c5.28 13.136 15.584 27.424 27.616 34.032c44.848 24.736 53.92 65.104 50.496 109.872 c-2.24 29.168 6.64 56.72 6.192 85.472C325.776 294.848 337.664 311.296 342.72 329.248z"/><glyph unicode="&#xE013;" glyph-name="benin" horiz-adv-x="512" d="M184.08 205.488c34.032 -18.192 30.64 -53.936 37.776 -83.552 c10.608 -43.984 -5.328 -89.968 6.144 -134.416l-0.608 0.016c0.336 -0.32 0.672 -0.656 0.992 -0.96c-0.096 0.288 -0.16 0.56 -0.256 0.848 c44.288 -8.656 58.688 1.808 59.392 42.624c0.24 13.904 -2.384 28.368 -0.688 41.424c3.088 24.08 -14.624 54.8 18.864 71.136 c2.096 1.008 3.232 5.456 3.536 8.416c1.376 13.04 8.752 22.176 18.272 30.224c3.552 3.008 18.624 43.92 17.44 47.536 c-10.672 32.704 -14.128 69.264 -47.392 90.112c-0.496 0.304 -0.448 1.456 -0.64 2.208c-4.736 0 -9.44 0 -14.176 0 c-10.336 -5.456 -17.712 -10.048 -18.08 -25.648c-0.384 -16.016 -14.272 -26.56 -33.024 -26.48c-24.512 0.08 -48.608 -19.328 -52.24 -42.144 C178.272 219.648 175.216 210.224 184.08 205.488zM231.36 -16.304c-0.992 0.96 -1.984 1.92 -2.976 2.88 c0.416 -1.36 0.816 -2.704 1.184 -4.016C230.16 -17.072 230.768 -16.688 231.36 -16.304z"/><glyph unicode="&#xE014;" glyph-name="bermuda" horiz-adv-x="512" d="M436.672 285.2c-0.992 0.928 -2.448 1.664 -4.528 2.144 c-4.64 7.28 -10.4 6.8 -16.784 2.496l0.112 -0.08l0 0l0.048 -0.032c0 0.032 0 0 0 0L415.472 289.76c-0.032 0 -0.032 -0.032 -0.08 -0.032 c-4.736 0.736 -6.064 -4.336 -9.536 -5.84c-7.248 0.576 -14.528 1.184 -22.032 1.808c7.472 18.256 20.608 18.704 37.664 11.264 c-4.336 6.992 -7.712 10.56 -9.008 14.784c-5.744 18.992 -14.992 13.92 -25.888 4.688c-13.568 -11.408 -22.64 -27.888 -40.544 -34.656 c-2.928 -1.104 -4.336 -6.368 2.384 -11.936c13.44 -11.12 33.456 7.408 43.296 -11.76c1.728 1.376 4.336 2.416 5.04 4.224 c5.664 14.448 15.088 7.84 18.672 0.88c11.664 -22.512 14.224 -7.328 18.48 3.504c1.552 -0.032 2.56 0.208 3.248 0.576 c2.064 1.2 0.864 3.952 0.176 6.448C438.48 278.064 439.648 282.432 436.672 285.2zM140.624 81.184c51.712 -5.616 91.504 22.624 129.104 49.824 c40.784 29.488 74.032 69.168 120.96 90.864c4.992 2.304 12.672 4.144 8.8 14.992c-14.064 -10.16 -32.864 -8 -37.472 4.256 c-10.736 28.224 -18.448 21.76 -38.208 7.584c-15.664 -11.168 -15.184 -23.6 -15.872 -37.264c-0.144 -2.736 8.368 -3.472 -0.56 -9.536 c-27.536 -18.56 -55.36 -28.672 -88.064 -14.992c-7.008 2.912 -18.944 -0.32 -16.752 -5.552c4.32 -10.368 13.616 -23.12 23.2 -25.568 c8.16 -2.064 17.152 -6.144 23.504 -4.912c-17.248 -19.792 -49.456 -18.592 -66.064 -44.768c-5.184 -8.24 -20.096 -12.032 -32.128 -10.528 c-8.272 1.056 -14.336 7.568 -14.48 16.224c-0.208 11.6 7.648 1.888 11.328 3.456c4 1.712 10.192 2.496 9.504 8.112 c-0.416 3.376 -4.976 5.264 -9.504 5.152c-15.568 -0.416 -29.84 3.584 -43.264 14.944c-4.24 -18.864 11.536 -28.976 12.832 -43.92 C118.688 86.336 128.16 82.56 140.624 81.184zM106.016 138.432c8.848 -1.952 8.688 6.336 9.488 12.416 c0.704 5.136 4.032 9.12 8.464 10.096c9.712 2.16 9.44 7.104 6.96 14.992c-2.96 9.232 -11.472 9.344 -17.648 12.976 c-20.608 -6.304 -15.024 -20.88 -11.024 -34.544C103.824 148.976 96.992 140.432 106.016 138.432zM135.264 181.168c22.256 1.728 16.672 24.176 23.568 32.864 C149.488 207.68 136.88 199.968 135.264 181.168zM466.48 281.632c-0.528 0.928 -1.072 1.92 -1.632 2.928 c-0.48 -0.496 -1.44 -1.104 -1.376 -1.504c0.288 -1.072 0.928 -2.08 1.424 -3.072C465.408 280.48 465.872 281.008 466.48 281.632z"/><glyph unicode="&#xE015;" glyph-name="bhutan" horiz-adv-x="512" d="M450.336 208c-26.928 27.44 -54.816 41.536 -89.504 33.392 c-18.304 -4.304 -33.904 -0.24 -49.792 7.392c-13.392 6.4 -26.912 12.592 -40.592 18.336c-18.768 7.84 -36.384 5.952 -53.424 -5.92 c-8.912 -6.224 -19.12 -10.64 -29.008 -15.376c-22.96 -10.912 -39.216 -27.984 -49.456 -51.232c-5.984 -13.616 -12.56 -26.976 -19.664 -40 c-10.32 -18.88 -1.488 -40.784 19.776 -42.512c13.248 -1.008 24.176 -5.808 35.12 -11.472c12.256 -6.336 25.168 -11.008 38.416 -7.952 c21.856 5.056 41.92 -0.336 62.016 -7.008c10.656 -3.488 21.952 -6.064 32.448 -3.92c35.12 7.28 69.888 5.632 105.248 1.888 c24.496 -2.56 36.784 11.68 38.224 37.008c1.216 21.696 -3.984 42.336 -11.936 61.904C432.88 195.632 433.232 203.68 450.336 208z"/><glyph unicode="&#xE016;" glyph-name="bolivia" horiz-adv-x="512" d="M410.592 180.16c-0.528 0.368 -1.088 1.568 -0.896 2.112 c7.792 19.968 -8.8 17.824 -17.936 17.136c-26.256 -1.968 -28.912 11.264 -28.144 33.152c0.496 14.56 1.696 35.632 -20.96 37.888 c-10.64 1.024 -18.512 3.728 -27.424 9.392c-11.536 7.296 -24.864 12.912 -38.208 15.968c-25.6 5.92 -39.232 20.432 -39.392 45.936 c-0.16 25.232 -3.584 28.016 -27.856 20.464c-6.528 -2.032 -12.224 -6.672 -18.448 -9.792C173.328 343.36 157.648 327.328 134.016 334.96 c1.632 -17.344 22.064 -28.752 16.8 -41.568c-15.872 -38.416 -0.464 -81.392 -19.92 -118.704c-0.96 -1.84 1.44 -5.904 3.008 -8.48 c22.336 -37.472 19.632 -82.704 37.712 -121.52c2.704 -5.76 -2.192 -15.104 7.808 -17.456c8.96 -2.08 13.792 3.728 19.536 9.664 c17.792 18.352 48.016 15.712 64.864 -6.576c4.72 12.72 10.272 24.512 23.664 19.952c24.096 -8.272 24.624 8.752 25.52 22.784 c1.008 16.064 7.408 30.816 18.864 38.208c26.864 17.28 64.8 11.008 87.312 -10.496c0.912 1.12 2.384 2.128 2.576 3.344 c0.24 1.392 -1.408 3.12 -1.056 4.368C427.456 133.808 440.528 159.984 410.592 180.16z"/><glyph unicode="&#xE017;" glyph-name="bosnia" horiz-adv-x="512" d="M151.184 303.168C143.584 311.696 134.944 319.584 123.088 310.336 c-6.768 -5.216 -8.192 -45.024 -1.568 -50.416c18.592 -15.088 33.424 -32.112 38.144 -56.752c1.04 -5.376 6.736 -10.768 11.616 -14.336 c27.008 -19.776 42.784 -52.64 75.936 -65.28c2.256 -0.848 3.808 -4.496 4.896 -7.184c17.984 -44.8 57.216 -66.4 96.4 -87.888 c4.24 -2.272 9.12 -1.648 13.04 2.208c4.8 4.688 3.792 9.136 1.056 14.752c-5.136 10.416 -14.8 20.512 3.392 30.432 c10.752 5.84 7.056 25.312 21.392 31.008c0.752 0.304 1.584 1.072 2.176 0.912c29.92 -8.992 13.408 11.152 12.512 21.008 c56.448 5.984 56.768 6.448 27.744 48.016c7.616 5.632 21.696 -4.368 24.544 6.208c3.008 11.216 -12.224 14.304 -18.016 22.208 c-1.76 2.384 -4.816 4.288 -7.648 5.344c-17.504 6.528 -13.232 18.4 -7.552 30.4c2.336 4.912 6.576 8.944 8.608 13.952 c2.784 6.912 10.192 14.064 4.512 21.648c-5.504 7.28 -13.808 4.272 -21.68 2.272c-8.032 -2.08 -18.864 -6.112 -23.904 2.48 c-18.144 31.088 -47.904 23.328 -74.56 22.72c-27.584 -0.656 -54.432 1.872 -80.416 10.032c-14.784 4.608 -48.848 1.232 -57.6 -11.2 C166.336 288.96 159.648 293.648 151.184 303.168z"/><glyph unicode="&#xE018;" glyph-name="botswana" horiz-adv-x="512" d="M113.296 76.784c-0.096 -9.008 2.672 -15.104 9.024 -22.496 c12.832 -14.88 26.768 -30.912 15.84 -54.176c-4.096 -8.688 -1.52 -15.536 11.248 -17.136c24.528 -3.056 54.928 13.568 63.808 39.888 c7.056 20.912 16.32 24.032 34.256 11.616c18.16 -12.576 49.488 -21.072 57.808 -7.008c15.312 25.92 45.232 37.664 55.248 66.016 c2.736 7.728 6.192 13.968 13.872 17.76c20.8 10.32 33.664 31.552 56.864 39.424c19.36 6.576 8.336 17.312 -0.928 24.032 c-5.312 3.856 -13.12 4.672 -20 5.84c-12.704 2.144 -21.152 11.648 -21.344 21.84c-0.4 22.128 -16.64 30.4 -30.88 38.656 c-31.552 18.272 -40.768 50.368 -54.4 80.048c-6.288 0 -12.592 0 -18.88 0c-18.336 -1.872 -31.728 -32.432 -54.864 -9.12 c-2.576 2.592 -10.592 0.288 -15.968 -0.544c-17.008 -2.656 -33.888 -6.992 -50.992 -8.144c-12.448 -0.864 -15.312 -5.312 -15.056 -16.96 c0.736 -33.808 -0.432 -67.664 0.592 -101.44c0.432 -14.384 -3.504 -20.704 -18.272 -18.224c-13.248 2.24 -17.712 -3.264 -17.152 -16.752 C114.112 125.568 113.552 101.152 113.296 76.784z"/><glyph unicode="&#xE019;" glyph-name="brazil" horiz-adv-x="512" d="M328.896 278.688c-7.296 -2.048 -12.272 -2.576 -11.024 7.504 c3.36 27.264 -5.984 39.376 -33.232 42.528c-4.656 0.576 -10.24 -1.008 -13.184 3.136c-21.6 30.56 -57.44 22.832 -86.816 32.256 c-16.8 5.424 -25.808 -1.728 -25.472 -21.28c0.88 -49.584 0.528 -99.152 0.08 -148.736c-0.128 -10.64 1.872 -17.408 13.248 -20.912 c10.688 -3.248 20.176 -9.68 20.144 -22.976c-0.048 -33.744 2.4 -67.792 -1.664 -101.024c-2.336 -19.024 -0.128 -24.528 18.256 -22.192 c4.656 0.576 9.424 0.08 14.144 0.08c3.92 0 8.08 -0.8 11.76 0.16c17.024 4.224 44.608 -8.8 43.296 26.064 c-0.112 3.536 3.28 2.304 5.232 2.976c24.672 7.984 36.544 29.536 43.664 50.48c4.72 13.872 12.048 21.696 22.624 22.72 c28.624 2.64 36.704 23.808 39.504 45.008c2.368 17.984 10.192 29.952 22.224 40.928c10.112 9.216 12.992 20.224 6.72 31.68 C411.2 260.288 344.608 283.008 328.896 278.688z"/><glyph unicode="&#xE01A;" glyph-name="brunei" horiz-adv-x="512" d="M200.496 115.68c0.544 -5.552 6.688 -11.216 14.048 -10.48 c16.176 1.616 23.248 -9.232 30.912 -20.528c7.472 -10.992 16.048 -21.248 24.432 -31.632c10.288 -12.72 21.056 -12.272 34.592 -3.408 c33.072 21.552 30.624 59.52 43.216 90.448c1.008 2.448 -2.384 7.216 -4.528 10.368c-14.896 21.904 -10.864 48.304 -17.344 72.208 c-2 7.296 3.552 11.888 8.784 15.168c19.104 12.16 38.496 23.84 62.928 38.864c-2.304 -42.192 0.8 -78.288 13.248 -113.44 c8.704 -24.64 23.28 -36.496 49.344 -34.576c14.88 1.104 23.552 6.064 11.504 21.52c-7.328 9.408 -8.096 20.736 -7.744 31.392 c1.008 29.6 -10.976 54.736 -23.792 80.016c-5.472 10.832 -12.032 18.064 -25.28 16.304c-9.28 -1.248 -13.968 0.64 -12.912 12.56 c1.904 21.664 -3.632 25.088 -23.28 16.064c-26.4 -12.112 -51.68 -26.096 -73.456 -45.872c-24.592 -22.336 -53.072 -38.336 -83.248 -52.336 c-25.872 -12.032 -53.36 -11.472 -88.016 -14.304C172.992 175.536 196.752 153.632 200.496 115.68z"/><glyph unicode="&#xE01B;" glyph-name="bulgaria" horiz-adv-x="512" d="M428.192 186.448c0.944 16.224 5.008 29.824 25.216 29.328 c10.48 -0.224 10.16 8.192 11.6 14.608c2.192 9.872 -5.488 8.512 -11.552 9.872c-6.784 1.488 -13.84 3.488 -19.616 7.136 c-43.008 26.896 -78.256 26.176 -118.096 -3.472c-10.032 -7.488 -20.912 -9.856 -33.008 -8.4c-42.096 5.104 -84.224 10.176 -126.608 15.328 c0.944 4.528 13.952 8.96 1.552 14.832c-5.952 2.864 -10.48 10.528 -19.2 0.08c-16.368 -19.552 -16.576 -34.128 6.528 -51.648 c15.312 -11.648 14.144 -23.296 -1.04 -28.864c-13.568 -4.96 -11.408 -12.576 -13.376 -22.336c-3.84 -18.912 0.544 -31.36 19.056 -39.28 c4.416 -1.92 9.424 -11.488 8.272 -15.952c-9.76 -36.896 14.48 -24.864 32.384 -24.048c9.76 0.416 18.752 2.768 27.168 6.528 c9.264 4.16 19.168 6.24 26.752 0.688c24.096 -17.632 50.608 -13.616 77.2 -11.44c5.216 0.416 12.16 4.368 11.184 6.608 c-10.192 23.552 13.568 22.336 22.704 30.208c10.368 8.88 27.216 15.696 38.288 9.248c14.64 -8.48 26.016 -2.8 39.728 -2.336 c-15.904 26.992 -15.872 26.944 -6.144 53.968C428.24 179.968 428.032 183.344 428.192 186.448z"/><glyph unicode="&#xE01C;" glyph-name="burkina" horiz-adv-x="512" d="M160.864 71.696c19.28 -6.688 22.56 -33.376 45.136 -33.28 c2.176 0 4.64 0.64 6.496 1.776c24.8 15.168 46.608 12.864 67.904 -9.664c-1.44 13.936 -0.048 28.976 -4.976 41.552 c-7.616 19.456 -0.96 25.296 16.784 23.328c42.912 -4.752 85.792 9.424 128.768 -0.448c8.32 -1.92 17.408 1.008 23.248 8.544 c6.8 8.752 15.696 10.336 26.256 10.8c22.16 0.992 28.672 12.56 19.904 32.768c-0.896 2.096 -2.8 4.672 -2.24 6.368 c7.04 21.328 -4.48 17.248 -18.96 16.96c-13.824 -0.288 -32.752 12.864 -29.168 23.184c4.704 13.52 -2.192 15.472 -8.064 18.496 c-10.544 5.44 -14.224 14.816 -20.464 23.552c-8.192 11.456 0.896 30.112 -14.512 35.328c-14.288 4.816 -29.84 8.56 -44.448 -3.264 c-15.152 -12.256 -36.944 -14.08 -49.904 -30.336c-31.152 10.208 -33.44 -22.176 -48.64 -34.688c-7.088 -5.824 -8.976 -9.168 -17.952 -4.784 c-15.968 7.792 -22.08 1.488 -25.584 -14.864c-3.52 -16.448 -3.76 -37.872 -28.016 -41.408c-11.12 -1.616 -17.696 -6.656 -13.488 -18.976 c2.336 -6.8 -0.16 -12.768 -3.744 -17.6C156.976 94.048 155.824 73.456 160.864 71.696z"/><glyph unicode="&#xE01D;" glyph-name="burundi" horiz-adv-x="512" d="M175.008 234.192c18.528 -17.856 26.912 -37.776 23.328 -65.008 c-3.632 -27.744 -0.912 -56.336 -0.784 -84.576c0.048 -8.672 0.864 -17.328 6.192 -24.688c12.832 -17.744 17.216 -38.304 20.144 -59.392 c1.616 -11.648 5.36 -17.376 20.128 -19.104c34.688 -4.048 59.248 12.064 80.192 34.928c26.272 28.672 45.92 62.224 63.936 96.72 c10.592 20.256 30.336 33.776 46.032 48.976c10.72 10.384 16.448 17.104 16.368 30.944c-0.08 14.816 -3.792 25.264 -21.072 26.88 c-8.384 0.784 -16.592 4.272 -24.72 6.992c-5.808 1.936 -13.52 3.52 -12.912 11.392c1.104 14.64 0.96 30.272 6.336 43.44 c6.384 15.648 13.232 28.528 -5.632 39.392c-7.872 0 -15.744 0 -23.616 0c-14.72 -6.816 -27.84 -21.952 -46.256 -5.776 c-6.496 5.68 -13.472 2.32 -13.952 -7.872c-0.304 -6.288 -0.88 -12.544 -0.976 -18.832c-0.336 -20.832 -8.064 -35.76 -29.92 -41.632 c-26.096 -6.992 -52.16 -1.52 -64.032 14.112c-9.184 12.096 -22.976 18.128 -36.8 14.928c-10.912 -2.512 -11.12 -15.568 -11.088 -26.064 C165.968 242.864 170.512 238.528 175.008 234.192z"/><glyph unicode="&#xE01E;" glyph-name="cambodia" horiz-adv-x="512" d="M181.968 165.92c5.552 -18.304 11.216 -35.856 20.48 -52.576 c2.672 -4.8 12.32 -10.56 -0.224 -15.456c7.744 -7.792 3.712 -20.432 10.784 -27.808c3.456 -3.616 10.352 -2.368 15.328 0.992 c4.448 3.008 5.104 16.48 14.576 5.584c5.296 -6.112 6.496 -12.304 -1.424 -17.936c-4.096 -2.928 -6.192 -7.552 -2.848 -12.16 c3.232 -4.48 8.048 -4.064 12.64 -1.84c11.44 5.584 22.768 1.424 33.072 -2.224c19.616 -6.928 41.584 0.976 52.048 20.704 c0.816 0.816 1.632 1.584 2.448 2.352c12.208 1.376 24.224 5.216 36.4 4.768c2.448 -0.08 4.88 -0.336 7.328 -0.832 c4.912 -0.992 9.84 -2.88 14.848 -6.064c9.232 -5.904 7.52 6.624 7.648 11.104c0.208 7.104 -7.392 9.344 -11.84 13.536 c-7.632 7.136 -9.648 17.632 -6.32 25.312c3.168 7.28 13.056 10.528 22.4 6.656c8.624 -3.568 13.52 -1.776 12.864 8.608 c-0.448 6.928 5.44 5.456 9.312 7.456c29.936 15.488 77.568 16.592 60.096 71.904c-0.608 1.92 0.544 4.72 1.568 6.768 c7.52 14.832 4.336 28.624 -3.472 42.24c-9.776 17.008 -10.08 33.84 1.84 50.144c1.168 2.656 1.84 5.232 -0.8 7.424 c-1.152 -1.392 -2.304 -2.8 -3.472 -4.192c-4.416 -1.2 -10.096 -1.008 -13.056 -3.76c-14.16 -13.056 -26.224 -17.792 -43.728 -2.528 c-9.632 8.368 -21.152 -7.04 -32.544 -9.888c-9.936 -2.528 -1.808 -9.68 0.08 -14.832c2.4 -6.656 1.232 -16.48 -6.288 -11.68 c-13.936 8.928 -29.584 10.368 -43.904 16.368c-16.112 6.768 -29.824 17.712 -50.064 12.064c-13.84 -3.872 -29.888 -2.8 -44.448 -0.608 c-29.616 4.448 -51.904 -3.584 -66.64 -30.624c-4.048 -7.456 -9.248 -17.648 -15.968 -19.6c-19.728 -5.776 -13.664 -17.76 -9.12 -28.992 C168.448 199.456 177.12 181.872 181.968 165.92z"/><glyph unicode="&#xE01F;" glyph-name="cameroon" horiz-adv-x="512" d="M168.544 56.704c19.184 -12.576 30.72 -27.36 25.36 -51.648 c-1.536 -6.912 3.632 -9.552 10.112 -9.456c10.224 0.112 20.672 -1.2 30.624 0.48c49.872 8.4 98.08 -0.688 146.24 -11.744 c0.336 15.92 4.784 32.608 -12.432 45.952c-18.928 14.672 -26.144 37.44 -32.192 59.792c-5.568 20.592 6.448 36.88 17.488 51.36 c16.016 21.072 5.136 35.728 -7.808 50.8c-4.528 5.28 -11.104 8.736 -16.096 13.696c-4.272 4.24 -11.312 8.304 -9.152 15.232 c2.928 9.376 11.856 4.992 18.352 5.344c8.272 0.464 16.592 0.112 29.04 0.112c-28.016 28.592 -12.112 67.136 -32.656 94.448 c-6.288 0 -12.592 0 -18.896 0c6.464 -6.24 1.344 -17.232 9.648 -22.88c17.808 -12.112 8.368 -22.048 -3.968 -29.088 c-8.096 -4.624 -15.008 -10.272 -17.456 -18.144c-12.384 -39.776 -42.032 -70.544 -56.176 -109.408c-3.728 -10.24 -10.336 -24.64 -22.72 -4.944 c-2.4 3.824 -6.288 4.432 -11.984 3.728c-24.304 -2.944 -38.16 -19.488 -46.88 -38.656C160.912 88.272 148.304 69.968 168.544 56.704z"/><glyph unicode="&#xE020;" glyph-name="canada" horiz-adv-x="512" d="M411.52 161.376c-14.032 13.664 -21.616 31.12 -9.76 51.072c2.88 4.848 5.184 10.448 0.848 15.312 c-20.8 23.152 -43.472 43.824 -73.52 52.592c13.056 24.24 33.28 41.52 58.608 53.456c7.456 3.504 17.712 6.688 16.352 17.504 c-1.344 10.48 -13.408 5.248 -19.12 10.128c-20.448 0 -40.896 0 -61.376 0c-12.688 -3.904 -25.984 -3.184 -38.944 -5.024 c-29.36 -4.192 -45.68 -22.24 -43.152 -51.04c1.504 -17.136 -5.68 -21.872 -20.592 -24c-20.592 -2.928 -39.856 0.336 -59.824 5.792 c-24.64 6.784 -36.704 -7.056 -29.856 -31.424c4.336 -4.224 11.056 -3.44 15.712 -6.896c-6.368 3.232 -13.76 3.92 -20.064 7.344 c-19.456 -2.336 -39.072 -3.456 -58.272 -8.096c0 -23.616 0 -47.2 0 -70.848c20.336 -12.176 33.936 -30.352 46.848 -49.84 c11.104 -16.832 29.536 -22.432 49.376 -22.56c25.872 -0.192 51.776 0.048 77.68 -0.112c27.072 -0.192 53.328 -2.272 66.912 -31.36 c1.568 0 3.136 0 4.72 0c18.4 5.296 37.76 8.336 52.848 21.712c4.672 4.192 0.336 -2.288 1.952 -1.584 c1.216 -4.848 4.16 -8.88 8.64 -10.304c21.216 -6.896 33.664 17.936 54.336 15.328c6.416 -0.8 7.552 6.56 7.216 12.368 C435.344 130.72 426.336 146.976 411.52 161.376zM315.6 151.76c-11.184 5.168 -23.024 9.12 -33.44 15.456c-6.448 3.92 -21.2 6.992 -12.96 18.4 c5.296 7.232 12.224 18.8 28.304 11.2c17.04 -8.16 34.288 -13.296 33.424 -38.16C329.104 152.976 325.104 147.36 315.6 151.76zM315.52 210.688 c-5.184 3.76 4.928 22.592 9.168 18.96c5.44 -4.592 11.76 -5.84 17.92 -10.96C331.632 220.752 326.896 202.336 315.52 210.688z"/><glyph unicode="&#xE021;" glyph-name="cape" horiz-adv-x="512" d="M342.528 8.032c6 -0.544 11.952 -2.192 16.64 4.928 c5.184 7.936 1.008 13.04 -3.024 18.64c-8.624 11.888 -23.6 17.088 -31.904 35.616c-3.68 -12.864 -6.256 -19.456 -7.376 -26.304 C314.208 24.976 326.416 9.504 342.528 8.032zM133.008 273.44c14.064 3.344 24.336 11.472 32.096 22.24 C161.216 305.36 154.08 312.56 147.232 309.088c-10.848 -5.472 -30.096 -2.816 -29.008 -23.216C118.688 277.12 122.208 270.864 133.008 273.44zM441.28 182.464c-18.672 4.064 -12.256 -13.68 -15.968 -21.248 c-4.32 -8.736 6.224 -12.992 12.224 -12.944c11.376 0.08 22.672 5.072 23.36 18.336C461.472 178.048 452.672 182.464 441.28 182.464zM248.496 218.192c9.744 16.688 26.352 0.752 39.584 9.648 c-12.96 12.832 -28.976 6.032 -41.584 12.576c-4.464 2.32 -9.84 -1.856 -8.496 -7.312C239.584 226.896 247.376 216.272 248.496 218.192zM239.728 -4.816c9.264 0.384 13.824 5.536 14.096 14.672 c-2.912 6.768 -3.44 16.32 -14.336 14.368c-8.528 -1.552 -17.52 -5.376 -16.112 -15.696C224.432 1.024 230.464 -5.184 239.728 -4.816zM395.984 36.88c7.92 0.704 10.48 5.616 9.648 13.488 c0.576 6.944 -2.72 11.92 -10.352 11.872c-9.008 -0.064 -7.968 -7.568 -8.768 -13.616C385.568 41.264 387.072 36.048 395.984 36.88zM150.784 262.144c0.032 -5.648 6.944 -7.28 13.168 -7.312 c5.008 1.008 13.296 -1.136 12.256 8.432c-0.56 5.12 -3.456 11.44 -10.304 10.112C159.504 272.144 150.736 270.464 150.784 262.144zM431.616 230.064c3.808 12.608 4.192 23.056 -1.072 32.432 c-1.888 3.344 -8.032 -0.208 -9.216 -3.424C417.12 247.952 420.464 238.864 431.616 230.064z"/><glyph unicode="&#xE022;" glyph-name="central2" horiz-adv-x="512" d="M184.224 35.648c4.336 35.664 24.864 39.024 52.24 32.64 c7.648 -1.792 11.936 3.488 13.36 13.584c4 27.648 21.264 34.672 42.096 17.888c6.496 -5.248 13.104 -8.24 20.64 -9.68 c18.304 -3.504 33.984 0.976 52.496 6.512c29.824 8.944 62.48 22.784 96.48 12.8c4.816 -1.408 15.616 1.92 15.92 4.192 c0.928 6.288 0 14.416 -7.584 17.952c-9.744 4.56 -12.64 15.856 -18.944 21.248c-15.616 13.264 -26.448 31.088 -44.016 42.384 c-13.328 8.592 -31.84 13.264 -26.16 38.384c3.376 14.896 -11.456 28.288 -24.544 33.904c-12.192 5.216 -21.024 -5.072 -29.648 -15.968 c-14.8 -18.672 -31.392 -37.744 -59.856 -34.816c-3.408 0.336 -10.128 -1.872 -10.256 -3.328c-3.184 -38.16 -41.12 -17.216 -56.752 -33.664 c-48.608 8.4 -73.44 -49.28 -52.368 -88.512C157.568 72.144 178.608 60.848 184.224 35.648z"/><glyph unicode="&#xE023;" glyph-name="chad" horiz-adv-x="512" d="M196.288 125.136c11.728 -7.328 16.736 -18.144 17.152 -31.136 c0.304 -9.984 -0.816 -20 5.616 -28.32c-8.848 -6.992 -21.184 2.048 -26.432 -9.296c-1.424 -3.136 35.04 -48.672 38.656 -48.576 c0.736 0.016 1.456 0.8 2.192 0.8c37.504 0.24 64.672 27.056 97.872 38.336c2.608 0.88 3.968 4.976 6.496 6.64 c12.672 8.24 17.088 27.024 36.048 27.536c4.496 0.128 6.16 5.984 2.688 8.816c-7.728 6.4 -5.536 16 -9.216 23.536 c-7.456 15.28 2.528 62.464 16.912 65.152c18.512 3.456 14.56 14.288 14.672 25.216c0.16 13.376 -0.96 26.848 0.32 40.096 c1.472 14.864 -4.912 21.52 -17.76 28.304c-46.72 24.672 -95.648 45.232 -139.744 74.688c-6.304 0 -12.592 0 -18.928 0 c-15.52 -14.144 -11.44 -31.04 -3.328 -45.744c8.8 -15.936 8.112 -31.392 7.056 -48.416c-1.76 -28.72 -6.08 -55.424 -30.672 -74.528 c-3.504 -2.72 -5.168 -7.776 -7.824 -11.664C176.704 149.952 179.184 135.84 196.288 125.136z"/><glyph unicode="&#xE024;" glyph-name="chile" horiz-adv-x="512" d="M290.816 345.008c-3.536 6 -1.728 19.36 -9.424 18.864 c-10.992 -0.72 -3.76 -12.256 -3.184 -19.296c-6.24 -41.456 -10.64 -83.344 -19.36 -124.32c-5.008 -23.552 -16.48 -44.976 -5.04 -70.288 c3.536 -7.76 4.112 -22.4 -9.664 -28.176c-5.504 -2.272 -10.768 -4.896 -3.664 -11.344c6.032 -5.488 2.8 -11.472 0.88 -17.392 c-7.216 -21.904 11.392 -60.688 32.144 -65.216c5.296 -1.152 14.864 -5.76 16.096 6.56c1.232 12.272 -1.728 23.328 -15.296 24.368 c-16.672 1.248 -23.12 18.832 -19.888 23.856c22.896 35.664 2.368 76.384 15.92 112.944c6.736 18.224 12 37.936 6.864 58.768 c-1.632 6.48 2.8 15.04 5.872 22.064C292.896 298.512 305.872 319.568 290.816 345.008z"/><glyph unicode="&#xE025;" glyph-name="china" horiz-adv-x="512" d="M131.28 138.512c-0.08 -1.184 3.392 -3.008 5.488 -3.968 c24.896 -11.008 48.64 -26.336 78.192 -10.72c4.928 2.608 28.416 3.312 18.448 -19.232c-4.528 -10.24 7.488 -13.76 10.976 -20.896 c2.672 -5.408 8.24 -2.72 14.656 1.232c15.472 9.552 27.344 2.32 34.56 -17.312c0.608 -1.664 3.296 -3.968 4.512 -3.696 c2.768 0.624 7.408 2.496 7.488 4.08c0.832 17.44 15.216 16.112 26.192 19.84c24.608 8.304 44 41.872 32.352 59.968 c-8.928 13.92 -8.448 22.144 8.8 29.04c-5.584 2.512 -7.584 3.664 -9.728 4.32c-4.32 1.376 -12.832 -3.968 -11.536 5.648 c0.432 3.168 6.32 15.728 13.12 2.128c0.272 -0.576 3.92 0.032 5.664 0.816c28.816 12.864 56.928 26.592 69.344 61.856 c-23.408 -3.68 -36.112 6.08 -44.688 24.144c-6.64 13.984 -27.232 20.672 -34.576 11.216c-6.224 -7.984 -5.248 -20.832 -17.888 -24.992 c-18.448 -6.032 -9.216 -13.008 -0.112 -19.632c-0.896 -1.04 -1.552 -2.512 -2.672 -3.12c-16.56 -9.264 -32.224 -22.096 -50.032 -26.736 c-24.656 -6.496 -49.6 -3.008 -72.704 12.064c-9.872 6.416 -18.4 11.216 -24.912 22.096c-7.728 12.912 -49.968 -0.08 -53.648 -19.6 c-3.664 -19.504 -14.096 -23.28 -28.752 -27.392c-8.624 -2.4 -12.352 -6.144 -6.576 -16.928C111.536 167.264 132.96 160.192 131.28 138.512z"/><glyph unicode="&#xE026;" glyph-name="colombia" horiz-adv-x="512" d="M381.84 238.096c-15.92 5.472 -33.888 -6.224 -44.384 5.2 c-11.136 12.112 -22.368 14.224 -37.008 13.744c-11.248 -0.32 -22.784 2.032 -19.072 18.48c1.168 5.424 -2.752 8.608 -4.944 12.608 c-13.632 24.976 -7.408 45.536 18.304 61.712c4.544 2.832 14.848 2.88 9.536 12.144c-4.88 8.448 -13.088 5.088 -18.064 0.032 c-11.872 -12.176 -25.824 -17.792 -42.496 -20.352c-13.408 -2.08 -28.624 -6.8 -30.592 -23.424c-2.032 -17.36 -15.904 -23.728 -26.672 -32.4 c-8.864 -7.2 -17.472 -24.896 -12.864 -34.848c9.76 -21.12 3.616 -43.68 4.96 -65.472c0.656 -9.952 -12.368 -16.272 -21.136 -23.056 c-4.448 -3.456 -17.056 -13.264 -7.424 -21.6c11.424 -9.84 25.952 -22.112 39.36 -22.4c33.776 -0.768 53.536 -20.48 70.864 -43.84 c6.816 -9.152 12.928 -11.456 22.528 -10.656c7.648 0.624 15.36 1.888 22.944 1.28c12.944 -1.024 24.224 -4.112 11.168 -20.144 c-5.952 -7.392 -1.76 -10.96 5.264 -13.296c2.848 -0.976 6.768 -7.072 8.24 0.384c4.336 22.016 20.016 49.952 6.064 65.136 c-17.6 19.152 17.488 32.464 -1.872 45.984c-0.448 0.352 6.224 2.656 9.984 3.008c11.328 1.008 22.304 0.416 33.904 5.392 c6.992 3.024 9.328 1.216 6.96 9.696C378.32 186.416 364.784 211.2 381.84 238.096z"/><glyph unicode="&#xE027;" glyph-name="comoros" horiz-adv-x="512" d="M174.448 141.744c13.872 -3.664 18.832 5.568 15.104 17.52 c-4.16 13.36 -9.456 26.672 -16.416 38.816c-8.64 15.136 -10.704 30.736 -8.992 47.456c0.32 2.352 0.576 4.688 0.896 7.024 c1.792 13.712 3.344 28.96 -15.408 30.128c-17.68 1.104 -20.368 -14.304 -22.064 -27.808c-1.552 -12.464 -1.28 -25.152 -2.976 -37.6 C119.152 176.496 134.304 152.384 174.448 141.744zM478.048 36.96c2.304 19.408 -3.184 37.2 -10.8 54.672 c-4.72 10.912 -14.832 10.464 -17.536 2.656c-8.752 -25.6 -29.264 -17.712 -48.032 -21.872c21.744 -12.832 42 -26.512 59.872 -43.888 C470.88 19.456 476.704 25.68 478.048 36.96zM261.04 26.272c12.992 -2.368 26.16 -3.504 42.56 -5.6 c-8.944 16.672 -22.544 23.2 -35.264 29.616c-6.272 3.152 -18.336 8.656 -21.824 -1.488C243.28 39.36 248.784 28.512 261.04 26.272z"/><glyph unicode="&#xE028;" glyph-name="congo" horiz-adv-x="512" d="M179.376 -5.68c3.536 -11.92 10.4 -12.944 19.712 -3.456 c10.352 10.592 22.016 17.328 35.424 3.008c5.648 -5.984 13.904 -6.512 18.336 0.656c6.496 10.48 17.616 8.896 26.432 13.408 c3.12 -6.96 -2.64 -17.264 6.704 -20.672c10.48 -3.824 14.624 6.16 20.752 11.92c7.952 7.488 15.744 15.744 25.12 20.944 c14.256 7.888 20.352 20.048 19.936 34.624c-0.608 21.552 1.2 40.576 17.152 58.032c8.224 8.992 13.44 19.888 25.36 26.208 c10.912 5.808 16.704 15.072 19.28 29.552c7.616 43.28 4.656 89.344 29.904 128.544c5.424 8.368 2.368 16.24 -1.6 24.016 c-17.28 0 -34.624 0 -51.904 0c-5.952 -10.256 -23.904 1.92 -25.408 -10.656c-2.72 -22.56 -17.056 -40.816 -19.696 -61.744 c-31.296 9.04 -62.72 17.024 -96.016 14.608c-19.968 -1.44 -15.552 -15.68 -14.896 -27.824c0.896 -16.592 11.184 -8.176 18.144 -6.112 c10.752 3.152 18.704 3.824 25.232 -8.56c6.464 -12.192 0 -15.568 -7.744 -22.32c-9.504 -8.304 -16.88 -20.064 -4.544 -31.984 c16.256 -15.696 23.104 -43.536 11.424 -62.736c-2.16 -3.504 1.68 -36.16 -19.328 -10.448c-0.512 0.576 -3.184 0.304 -4 -0.48 c-17.536 -16.256 -25.28 -2.528 -34.32 10.336c-4.304 6.08 -12.624 7.44 -13.184 -2.208c-0.88 -14.912 -7.504 -15.856 -19.872 -13.952 c-16.144 2.496 -18.4 -8.816 -13.856 -20.048c1.888 -4.608 3.104 -10.016 6.144 -14.56c5.84 -8.72 7.904 -15.312 -7.568 -11.2 c-6.272 1.664 -11.536 -4.064 -14.992 -9.472c-4.256 -6.576 2.224 -9.536 5.056 -13.888C166.128 9.44 176.192 5.2 179.376 -5.68z"/><glyph unicode="&#xE029;" glyph-name="costa" horiz-adv-x="512" d="M433.392 212.192c-11.264 1.584 -17.584 10 -24.368 17.296 c-31.152 33.696 -65.376 65.408 -75.232 114.864c-20.272 -23.04 -41.888 -22.352 -62.752 -3.248c-13.984 12.784 -33.616 20.832 -51.056 14.512 c-15.808 -5.712 -28 -4.848 -42.192 1.008C153.12 366.8 127.344 382.704 107.856 348.112c-0.912 -1.616 -4.096 -1.952 -6.208 -2.88 c0 -1.584 0 -3.152 0 -4.736C110.192 330.752 135.664 331.36 120.336 307.104c-21.472 -33.968 -10.512 -62.528 27.904 -74.064 c7.072 -2.144 12.704 -4.8 17.792 -10.144c14.816 -15.552 24.992 -13.216 37.264 4.208c5.424 7.712 -7.2 15.088 2.624 20.672 c9.552 -4.08 21.728 -9.952 20.48 -19.952c-2.944 -23.408 13.232 -24.592 27.824 -29.232c24.8 -7.952 47.136 -20.528 66.752 -37.552 c10.848 -9.392 15.568 -21.248 9.792 -35.776c-9.808 -24.672 -6.848 -29.696 20.192 -36.08c5.104 -1.2 11.296 -6.272 14.992 -0.864 c4.16 6.112 -1.232 11.584 -5.776 16.144c-2.192 2.24 -4.08 4.736 -6.112 7.12c1.2 1.056 2.384 2.144 3.584 3.248 c9.92 -2.272 21.776 -5.92 22.096 -16.512c0.528 -18.064 12.784 -26.592 23.248 -37.232c0.912 -2 1.824 -4 2.736 -5.968 c4.192 2.496 2.592 5.808 1.248 9.056c-4.016 9.072 -16.496 17.76 1.792 26.592c7.76 3.776 5.664 14.08 1.664 21.152 c-4.848 8.592 -3.504 15.248 4.768 19.824c15.296 8.448 6.656 14.8 -1.968 19.776c-17.936 10.416 -9.76 27.024 -7.984 40 c1.568 11.504 12.08 16.496 24.416 8.08c3.392 -2.304 8.08 0.416 9.472 4.416C440.624 208.416 437.312 211.664 433.392 212.192zM171.968 265.536c0.16 0.768 0.336 1.536 0.48 2.336c-0.16 -0.816 -0.32 -1.584 -0.48 -2.384L171.968 265.536L171.968 265.536 c-0.544 0.816 -1.088 1.616 -1.632 2.464C170.88 267.136 171.424 266.336 171.968 265.536zM172.512 264.528 c14.224 1.008 23.328 -6.336 29.184 -18.864C195.84 258.192 186.736 265.488 172.512 264.528z"/><glyph unicode="&#xE02A;" glyph-name="cote" horiz-adv-x="512" d="M159.632 79.68c17.616 -17.44 36.624 -35.376 16.736 -63.856 c-3.344 -4.8 -0.352 -13.856 -0.864 -20.912c-1.024 -13.664 4.736 -14.4 15.232 -9.008c66.176 34 135.744 48.72 210.16 38.496 c9.504 -1.312 22.112 -7.232 28.784 5.088c6.032 11.2 1.04 20.272 -9.28 27.328c-2.624 1.792 -2.24 7.424 -4.192 10.736 c-21.104 35.632 -1.12 68.304 13.728 96.432c13.184 24.992 13.76 44.112 5.76 69.152c-15.088 47.344 -36 55.184 -75.04 39.776 c-24.48 -9.664 -36.656 -2.72 -49.024 16.928c-8.992 14.288 -28.016 22.64 -40.096 14.544c-31.792 -21.344 -19.04 5.088 -20.752 16.704 c-4.72 0 -9.44 0 -14.176 0C234.96 312.48 217.28 318.064 221.552 304.16c-10.448 -2.528 -18.56 -14.032 -31.904 -5.568 c-17.008 10.768 -43.488 -3.776 -42.368 -23.856c1.456 -25.792 11.872 -49.552 22.704 -72.816c-1.792 -1.648 -3.376 -0.976 -5.712 -0.528 c-7.344 1.424 -16.64 5.568 -21.776 -1.696c-4.736 -6.64 4.112 -11.488 6.256 -16.88c3.392 -8.56 2.128 -23.776 -9.456 -26.352 c-10.96 -2.448 -10.56 -4.976 -6.72 -12.672c8.912 -17.712 6 -33.264 -9.056 -45.088C132.464 84.592 150.112 89.104 159.632 79.68z"/><glyph unicode="&#xE02B;" glyph-name="croatia" horiz-adv-x="512" d="M419.52 248.448c-2.048 21.312 -11.072 35.616 -34.432 15.776 c-2.8 -2.336 -9.184 -0.928 -13.872 -0.576c-28.752 2.192 -50.32 18.64 -69.936 37.488c-15.712 15.088 -30.464 24.544 -50.336 6.992 c-5.12 -4.528 -11.584 -8.16 -17.984 -10.416c-7.84 -2.8 -6.496 -7.424 -8.528 -13.904c-4.864 -15.168 -16.4 -28.592 -27.2 -41.008 c-1.2 -1.36 -18.096 -1.84 -25.408 6.4c-2.336 2.608 -5.552 7.968 -9.2 4.336c-16.976 -16.704 -38.176 -7.92 -58.544 -10.304 c2.08 -17.552 4.768 -35.616 20.336 -45.216c12.8 -7.92 11.088 17.04 24.48 15.088c2.112 -10.192 -0.544 -21.936 10.672 -30.256 c0.576 9.184 1.12 17.216 1.584 24.608c21.872 3.744 11.456 -12.496 13.408 -20.176c3.808 -15.008 22.336 -20.4 23.008 -37.024 c-5.04 -1.056 -10.08 -2.144 -14.816 -3.136c4.848 -15.984 17.184 -16.064 29.984 -15.184c22.128 -6.304 32.288 -38.272 61.76 -28.816 c3.968 -3.68 -1.2 -5.76 -1.6 -8.72l0.896 -0.944l-0.928 0.864c-1.04 -0.768 -2.08 -1.584 -3.072 -2.368 c1.264 -1.168 2.528 -2.32 3.792 -3.504h-0.032c-2.992 -5.2 -3.888 -8.656 3.76 -11.424c13.216 -4.72 26.144 -2.688 39.264 -1.024 c2.864 -2.448 8.656 -0.496 9.392 -6.24c-13.712 0 -27.456 0 -41.104 0c-0.56 -3.104 -1.088 -6.256 -1.632 -9.408 c31.472 7.824 55.648 -14.848 88.112 -14.08c-11.552 9.2 -21.088 16.848 -30.624 24.432c-9.328 9.92 -15.328 25.536 -25.152 31.296 c-36.784 21.6 -52.576 60.288 -79.2 89.888c-6.864 7.568 -3.008 19.648 1.36 26.464c5.232 8.224 11.808 0 16.416 -4.88 c6.528 -6.928 12.272 -5.536 17.056 1.568c4.112 6.192 10.4 4.944 16.224 6.736c19.904 6.112 37.472 -5.456 56.608 -6.192 c17.2 -0.656 36.112 6.656 51.952 -3.712c13.744 -8.976 26.24 -25.904 32.08 5.984c0.688 3.776 10.768 -0.384 15.344 6.08 C435.792 231.968 421.088 232.272 419.52 248.448z"/><glyph unicode="&#xE02C;" glyph-name="cuba" horiz-adv-x="512" d="M334.608 207.424c-12.928 10.368 -22 26.224 -42.56 14.768 c-5.504 -3.072 -11.68 2.192 -16.8 6.224c-27.776 21.952 -60.752 20.864 -92.864 18.032c-30 -2.688 -59.328 -10.272 -72.032 -41.936 c14.736 -3.456 28.544 0.624 54.416 18.96c10.448 7.408 24.656 13.216 29.536 0.88c4.624 -11.744 11.424 -9.68 18.528 -12.064 c34.544 -11.568 75.968 -6.608 100.512 -42.352c3.76 -5.488 10.944 -5.168 17.376 -5.136c5.312 0.048 11.952 1.44 14.688 -4.672 c3.28 -7.28 -4.544 -8.656 -8.24 -11.952c-3.136 -2.832 -5.6 -5.392 -2.576 -12.528c34.944 11.408 73.28 -4.736 113.232 13.824 c-23.904 12.176 -43.088 25.248 -64.288 31.776C364.944 186.96 349.008 195.888 334.608 207.424zM168.592 188.8c4.8 0.912 11.568 1.76 10 9.136 c-1.104 5.344 -4.384 10.032 -11.248 9.712c-7.936 -0.496 -6.56 -7.92 -7.664 -12.192C158.032 189.056 163.936 187.904 168.592 188.8z"/><glyph unicode="&#xE02D;" glyph-name="cyprus" horiz-adv-x="512" d="M181.776 129.648c10.832 -2.192 21.328 -5.392 32.256 -3.84 c11.552 1.584 20.4 1.76 27.472 -10.992c4.896 -8.896 15.648 -12.304 19.184 3.216c3.008 13.456 12.304 16.064 24.112 17.664 c24.064 3.28 50.688 5.008 67.392 23.76c24.704 27.76 52.064 42.848 89.68 37.344c5.296 -0.768 14.8 -1.136 15.008 7.04 c0.24 7.632 -6.192 11.248 -13.952 15.52c-18.256 9.984 -32.208 -1.264 -45.712 -6.848c-16.72 -6.928 -34.432 5.424 -51.552 -6.688 c-1.92 14.848 0.176 31.728 -17.808 32.864c-25.136 1.536 -51.36 6.192 -74.64 -8.56c-16.592 -10.544 -33.184 -6.576 -45.776 4.08 c-18.4 15.552 -32.416 8.864 -47.408 -3.12c-9.664 -7.76 -17.952 -17.008 -33.008 -11.664c-11.408 4.08 -8.48 -5.84 -7.264 -11.04 C128.128 172.56 138.272 138.432 181.776 129.648z"/><glyph unicode="&#xE02E;" glyph-name="czech" horiz-adv-x="512" d="M442.256 157.44c-2.72 9.552 -9.344 20.944 -20.016 23.84 c-8 2.144 -15.328 8.56 -24.56 6.032c-5.664 -1.552 -10.368 2.304 -11.136 6.304c-4.384 22.144 -27.168 9.648 -37.696 20.48 c-2.368 2.416 -4 -3.232 -3.264 -6.08c2.848 -11.008 -9.456 -13.792 -11.6 -12.192c-6.816 5.104 -15.616 10.496 -16.528 18.448 c3.136 5.68 5.648 10.032 2.656 11.296c-22.672 9.536 -45.152 21.664 -68.832 25.056c-6.16 0.88 -16.224 -9.872 -25.536 1.728 c-1.488 1.84 -8.64 1.92 -10.672 0.064c-23.696 -21.568 -53.664 -29.744 -83.088 -38.24c-8.608 -2.448 -13.776 -16.992 -25.664 -7.92 c-3.84 -12.336 5.248 -17.296 13.088 -23.04c2.736 -2 3.392 -4.784 2.56 -8.224c-3.632 -15.392 6.784 -24.48 16.656 -32.256 c18.192 -14.304 37.664 -26.864 56.224 -40.576c18.4 -13.68 37.856 -14.272 50.112 3.568c9.392 13.568 18.88 14.736 30.064 7.984 c21.936 -13.2 49.008 -3.488 70.624 -17.008c1.024 -0.64 5.712 2.128 6.736 4.24c3.84 8.304 10.336 7.952 17.792 7.264 c16.624 -1.584 28.336 8.224 36.304 20.48c5.536 8.528 14.064 12.176 20.224 19.008C431.232 152.768 445.008 147.744 442.256 157.44z"/><glyph unicode="&#xE02F;" glyph-name="democratic" horiz-adv-x="512" d="M114.192 115.056c10.64 3.648 23.312 0.992 35.072 1.632 c13.152 0.704 21.936 0.72 25.776 -17.392c5.232 -24.656 34.096 -31.472 46.048 -11.936c9.936 16.192 18.72 3.28 27.888 3.824 c12.368 0.704 12.848 -10.944 11.312 -16.208c-5.76 -19.408 7.76 -34.512 7.248 -53.632c21.408 9.232 38.24 4.464 54.304 -8.368 c5.088 -4.064 13.504 -7.52 19.424 -6.336c17.984 3.552 29.504 -3.568 38.464 -17.888c3.664 -5.952 8.72 -9.264 15.744 -5.968 c5.712 2.672 7.008 7.824 6.688 13.824c-0.416 7.952 -4.704 7.072 -11.072 7.2c-11.52 0.224 -14.864 8.272 -13.744 19.232 c1.104 10.64 5.952 20.688 2.624 32.24c-1.2 4.144 4.592 14.864 7.616 15.008c35.664 1.776 19.168 15.936 8.944 31.136 c-7.456 11.056 -8.48 25.072 -8.224 38.512c0.24 11.504 1.008 23.008 1.968 34.48c2.192 26.656 4.752 55.472 23.664 74.176 c15.52 15.344 7.824 29.152 4.88 41.488c-2.576 10.576 -15.152 20.288 -29.936 17.232c-14.56 -2.992 -25.04 2.784 -33.584 13.808 c-11.04 0 -22.032 0 -33.056 0c-9.92 -8.272 -23.168 -3.088 -34.16 -9.024c-20.4 -11.008 -40 -12.224 -61.184 2.672 c-8.768 6.16 -21.808 -4 -22.368 -16.816c-1.056 -26.416 -11.728 -49.728 -20.976 -73.552c-7.664 -19.696 -21.68 -36.336 -20.912 -60.144 c0.32 -9.072 -5.584 -29.312 -27.776 -19.312c-7.008 3.152 -18.064 -1.04 -26.672 -3.664c-5.76 -1.76 -14.944 -3.328 -10.272 -14.176 C101.072 119.744 99.84 110.16 114.192 115.056z"/><glyph unicode="&#xE030;" glyph-name="denmark" horiz-adv-x="512" d="M432.032 109.36c-5.264 2.992 -10.224 5.344 -13.456 -1.92c-3.616 -8.112 2.112 -11.744 8.352 -13.52 c4.336 -1.232 9.184 -0.384 13.792 -0.512c0 4.752 0 9.472 0 14.192C437.84 108.144 434.464 107.952 432.032 109.36zM122.672 120.096c4.768 -2.112 5.456 -9.984 3.568 -17.024c-3.136 -11.696 1.856 -16.16 14.624 -19.968 c18.976 -5.664 36.224 -1.664 54.176 0.976c7.952 -1.008 14.688 -0.24 14.544 10.288c4.56 -0.096 9.168 -0.128 13.776 -0.176 c1.344 -3.072 2.736 -6.16 4.112 -9.232c-3.728 0.096 -7.456 0.16 -11.136 0.256c0.08 -1.376 -0.368 -3.536 0.32 -4.064 c4.592 -3.2 8.72 -1.936 12.256 2.096c4.272 0.256 8.528 0.464 12.8 0.672c12.256 -20.4 23.712 -22.4 39.52 -6.96 c11.328 4.624 22.624 9.28 33.856 13.84c-5.6 10.064 -13.6 4.336 -21.184 2.976c1.216 13.248 25.872 16.848 10.112 32.656 c-0.272 0.288 1.472 3.552 2.08 3.504c23.472 -2.064 10.672 13.472 11.568 22.848c0.864 8.784 1.152 15.936 -10.336 16.288 c-10.544 0.304 -21.072 -1.28 -23.104 -13.472c-0.96 -5.808 -0.912 -10.368 -7.28 -13.28c-3.76 30.336 -13.056 11.28 -21.952 3.04 c-3.968 -3.664 -17.68 -2.688 -13.76 -6.832c9.472 -10.096 0.848 -31.024 17.344 -32.72c16.336 -1.68 15.856 -11.744 18.08 -22.128 c-12.08 -3.664 -20.896 10.192 -33.072 6.224c-0.992 5.872 -0.368 12.912 -9.328 13.184c-4.112 32.32 -8.112 35.008 -39.776 28 c-2.688 -0.56 -5.616 -0.24 -8.48 -0.24c0.032 0.24 0 0.416 0.032 0.704c0.032 0.032 0.08 0.096 0.112 0.16 c10.304 11.376 14.272 28.928 26.672 38.336c0.384 0.304 0.656 0.608 1.008 0.864c1.744 1.216 3.824 2.128 5.936 2.976 c0.624 0.272 1.12 0.656 1.76 0.848c2.896 0.976 6.112 1.6 9.792 1.712c5.232 0.288 7.088 7.712 6.384 13.664 c-0.688 6.192 -5.296 7.312 -10.192 6.912c-24.56 -2 -21.888 17.712 -17.008 28.144c7.984 17.056 7.712 34.048 9.136 51.392 c-0.048 0 -0.048 0 -0.08 0l0 0c-1.456 -0.064 -2.96 -0.208 -4.448 -0.288c-1.632 -0.128 -3.216 -0.128 -4.88 -0.32 c-1.472 -0.192 -2.832 -0.56 -4.24 -0.832c-1.616 -0.32 -3.312 -0.496 -4.848 -0.976c-2.208 -0.656 -4.128 -1.616 -6.048 -2.608 c-0.64 -0.32 -1.36 -0.464 -1.952 -0.816c-2.368 -1.456 -4.448 -3.264 -6.08 -5.456c-13.632 -18.72 -29.76 -27.648 -52.688 -27.824 c-12.752 -0.128 -22.592 -8.336 -24.656 -21.248c-2.688 -16.72 16.208 -5.008 21.008 -13.712c-5.824 -8.608 -11.056 0.272 -16.256 -0.048 c-7.104 -0.448 -14.064 -1.872 -12.224 -10.032C107.712 168.048 86.352 136.112 122.672 120.096z"/><glyph unicode="&#xE031;" glyph-name="djibouti" horiz-adv-x="512" d="M411.152 263.936c-4.464 38.064 -32.32 63.296 -53.488 92.064 c-1.248 1.696 -2.288 4.096 -5.36 2.256c-19.664 -11.888 -47.568 -9.472 -57.456 -38.56c-9.632 -28.304 -15.28 -28.464 -40.08 -9.808 c-24.512 18.448 -27.6 17.76 -45.472 -8.24c-23.104 -33.616 -41.328 -72.864 -70.976 -99.184c-41.232 -36.624 -37.504 -79.28 -34.848 -124.608 c0.56 -9.392 2.224 -18.704 2.992 -28.08c1.696 -20.976 13.152 -31.888 33.824 -28.432c30 5.04 60.16 10.464 89.312 18.912 c22.256 6.448 41.568 8.128 62.496 -4.544c14.704 -8.944 28.976 -6.848 39.008 11.616c11.952 21.968 26.992 42.24 40.512 63.36 c11.776 18.416 8.368 26.8 -12.768 32.448c-25.984 6.944 -50.992 3.328 -75.84 -5.872c-10.832 -4 -21.728 -12.576 -35.92 -0.624 c21.84 -4.192 30.16 11.456 39.76 24.128c8.624 11.408 20.432 16.704 33.264 20.48c25.264 7.424 46.736 21.808 67.696 36.896 C403.168 229.216 413.424 244.48 411.152 263.936z"/><glyph unicode="&#xE032;" glyph-name="dominica" horiz-adv-x="512" d="M263.872 23.344c9.168 0.16 16.512 1.888 20.736 7.84 c10.208 14.448 22.224 22.784 41.232 21.056c10.64 -0.976 12.192 10.096 15.008 18.208c14.624 42.048 6.352 85.232 4.832 127.744 c-0.608 17.456 7.936 33.664 -0.128 52.8c-10.576 25.184 -40.048 37.856 -41.744 67.76c-0.048 0.96 -3.952 1.952 -6.16 2.56 c-14.992 4.048 -29.776 10.96 -45.52 8.768c-12.736 -1.808 -19.424 3.84 -23.968 13.904c-8.288 18.272 -25.424 26.56 -39.552 16.4 c-10.816 -7.76 -12.832 -27.824 -18.544 -42.448c-0.16 -0.416 2 -2.336 3.28 -2.576c22.048 -4.224 9.008 -17.568 3.12 -21.904 c-10.8 -7.92 -6.384 -14.72 -4.448 -23.952c9.392 -44.688 31.088 -83.792 54.64 -122.048c4.896 -7.952 6.224 -14.944 5.952 -24 c-0.304 -10.192 -0.464 -23.984 5.52 -30.016c16.448 -16.4 0.496 -41.744 18.336 -56.416C245.152 22.784 258.592 25.232 263.872 23.344z"/><glyph unicode="&#xE033;" glyph-name="dominican" horiz-adv-x="512" d="M437.568 188.992c-15.6 12.368 -31.184 23.728 -51.12 27.584 c-18.272 3.504 -36.56 6.944 -54.848 10.368c-0.128 1.808 -0.24 3.632 -0.368 5.472c7.728 0 15.44 -0.24 23.152 0.08 c4.048 0.192 8.32 2 8.608 6.448c0.432 6.576 -5.456 7.104 -9.872 7.184c-8.624 0.16 -17.296 -0.368 -25.872 -1.232 c-9.168 -0.928 -17.024 2.896 -18.256 11.104c-3.024 19.984 -13.248 25.776 -32.24 21.872c-4.4 -0.944 -9.76 4.64 -14.96 5.488 c-22.816 3.664 -42.064 22.016 -66.304 17.68c-11.776 -2.128 -22.08 -3.36 -34.176 -0.24c-19.664 5.056 -29.696 -9.008 -30.512 -29.664 c-0.752 -19.168 16.736 -40.08 -3.712 -57.984c-0.768 -0.704 -0.752 -3.392 -0.048 -4.496c13.248 -21.44 -3.008 -27.6 -17.568 -32.944 c2 -15.552 23.28 -19.36 20.576 -33.152c-3.152 -16.112 6.72 -26.784 10.208 -39.824c3.584 -13.392 23.424 -20.944 28.96 -12.944 c8.896 12.864 17.872 25.936 24.448 40.016c8.016 17.28 28.752 26.464 44.288 15.2c14.752 -10.72 32.192 -8.752 41.664 -0.72 c27.568 23.424 58.32 11.616 87.6 12.672c9.216 0.336 22.896 4 29.104 -4.768c18.576 -26.208 29.744 -2.064 41.2 6.08 C448.704 166.24 452 177.536 437.568 188.992z"/><glyph unicode="&#xE034;" glyph-name="east2" horiz-adv-x="512" d="M244.96 139.6c-15.472 -1.504 -10.864 -9.024 -6.16 -17.456 c3.024 -5.376 5.168 -11.248 8.144 -17.856c19.168 13.216 37.44 26.336 59.872 32.544c21.536 6 42.432 14.304 63.376 22.224 c29.664 11.168 59.312 22.864 86.256 39.76c7.872 4.928 22.656 13.008 17.856 20.832c-5.68 9.344 -21.648 10.256 -34.208 9.456 c-4.336 -0.272 -8.512 -3.504 -12.72 -5.504c-12.176 -5.808 -24.672 -9.008 -38.416 -9.088c-34.512 -0.128 -68.752 -2.32 -103.024 -8.416 c-26.48 -4.704 -39.952 -22.544 -53.824 -40.928c-4.448 -5.92 -4.672 -16.032 9.04 -12.544c4.368 1.12 10.192 4.432 12.256 -1.488 C255.52 145.168 251.088 140.208 244.96 139.6zM182.528 132.256c1.84 4.816 -2.64 7.952 -6.608 6.224 c-12.256 -5.328 -30.416 -2.768 -34.96 -18.432c-2.288 -7.888 9.856 -7.104 17.6 -8.304C172.128 110.896 178.16 120.992 182.528 132.256z"/><glyph unicode="&#xE035;" glyph-name="ecuador" horiz-adv-x="512" d="M377.712 292.944c-8.336 3.008 -15.04 7.472 -21.552 13.456 c-4.624 4.272 -12.144 11.648 -18.096 5.376c-16.816 -17.6 -42.384 -7.872 -48.048 -0.16c-18.096 24.864 -49.408 24.912 -68.992 44.496 c-3.584 3.632 -13.248 7.584 -13.568 7.072c-14.192 -21.52 -41.616 -15.376 -59.616 -28.8C142.896 330.688 142.592 326.88 143.28 322.72 c3.008 -18.432 -0.048 -34.08 -16.768 -45.312c-3.456 -2.304 -5.104 -6.96 -4.464 -12.528c1.36 -10.944 -3.408 -19.584 -14.144 -23.76 c-4.832 -1.92 -9.824 -5.2 -7.52 -9.952c12.992 -27.024 -16.96 -69.024 29.28 -84.352C130.4 146.56 131.52 145.952 131.52 145.488 c1.152 -20.304 10.448 -11.136 21.296 -5.648c-8.16 -18.928 -26.352 -32.816 -19.648 -55.584c0.08 -0.32 -5.312 -2.24 -8.16 -3.456 c-13.008 -5.616 2.192 -14.4 -2.112 -22.544c-1.92 -3.632 7.136 -0.512 11.68 -0.144c14.992 1.312 29.76 0.864 38.816 -15.552 c11.696 -21.296 17.168 -20.192 34.544 -1.088c6.8 7.504 8.992 14.848 11.92 23.712c12.224 37.392 31.152 68.912 73.84 78.72 c53.648 12.336 81.088 53.168 103.376 98.752C401.296 251.248 386.304 289.904 377.712 292.944z"/><glyph unicode="&#xE036;" glyph-name="egypt" horiz-adv-x="512" d="M114.448 193.472c-1.952 -48.704 0.272 -97.584 -0.896 -146.336 c-0.416 -17.344 3.776 -22.8 21.968 -22.464c64.416 1.2 128.864 0.464 193.296 0.464c38.08 0 76.16 0 118.4 0 c-16.272 21.728 -47.696 30.144 -35.792 62.096c0.624 1.68 -5.504 5.28 -7.424 8.592c-19.872 34.16 -38.96 68.72 -52.608 112 c22.416 -13.632 21.168 -13.104 28.736 5.488c10.576 25.936 10.944 50.176 -1.344 75.952c-5.456 11.408 -8 16 -21.584 11.12 c-10.448 -3.76 -24.32 -5.296 -34.112 1.36c-27.424 18.64 -52.672 12.16 -77.584 -3.904c-9.472 -6.096 -17.792 -4.768 -28.432 -2.528 c-29.472 6.224 -56.896 21.056 -88.832 18.096c-14.56 -1.344 -14.576 -6.24 -16.736 -17.984C105.104 261.008 115.808 227.6 114.448 193.472z"/><glyph unicode="&#xE037;" glyph-name="el" horiz-adv-x="512" d="M436.24 208.08c-12.544 -0.928 -24.528 -2.24 -34.272 9.104 c-4.176 4.848 -11.12 3.184 -17.648 1.184c-15.504 -4.768 -32.672 -26.432 -46.032 3.072c-0.176 0.384 -1.488 0.272 -2.256 0.384 c-24.128 3.424 -43.008 18.864 -55.984 35.968c-17.616 23.168 -43.296 19.328 -64.976 27.312c-7.344 2.688 -29.44 2.24 -23.632 -20.288 c2.224 -8.608 -5.488 -9.424 -9.376 -13.728c-16.88 -18.592 -44.208 -22.384 -59.568 -43.184c-6.608 -8.944 -12.736 -20.752 -2.208 -26.176 c17.2 -8.752 30.816 -23.728 51.472 -27.072c33.664 -5.44 68.16 -7.92 98.48 -27.168c39.44 -25.056 85.984 -19.408 124.928 -27.44 c21.312 -0.208 39.184 -0.208 44.992 19.52c2.432 8.272 9.84 17.744 9.424 21.008c-2.512 19.984 7.968 38.784 4.08 58 C452.352 205.152 443.856 208.608 436.24 208.08z"/><glyph unicode="&#xE038;" glyph-name="equatorial" horiz-adv-x="512" d="M204.56 165.168c-6.72 -22.992 0.032 -42.608 -10.016 -62.992 c-10.688 -21.664 -31.824 -36.864 -35.984 -62.192c-1.424 -8.752 -4.368 -13.424 8.032 -15.728c25.12 -4.656 47.696 -16.928 75.552 -14.304 c40.512 3.84 81.664 1.568 122.512 0.672c14.672 -0.336 21.04 2.608 20.432 19.056c-1.264 33.76 -1.136 67.616 -0.032 101.36 c0.496 15.088 -4.88 18.528 -18.928 18.256c-40.048 -0.816 -80.16 0 -120.24 -0.432C230.672 148.72 216.56 150.16 204.56 165.168zM88.256 246.896c9.12 -2.704 17.392 -0.32 20.896 9.648 c4.192 11.936 11.92 21.664 18.272 32.304c8 13.424 4.384 22.368 -12.592 22.704c-12.704 0.688 -21.168 -3.584 -23.728 -17.12 c-1.28 -6.736 -2.528 -15.216 -10.288 -17.264c-11.072 -2.928 -12.752 -10.416 -11.136 -19.28C71.488 248.032 81.36 248.96 88.256 246.896z"/><glyph unicode="&#xE039;" glyph-name="eritrea" horiz-adv-x="512" d="M132.832 126.256c10.8 0.016 23.6 13.152 32.096 -5.52 c1.664 -3.632 6.048 2 7.296 5.696c7.2 21.52 16.496 34.352 36.128 9.552c3.264 -4.112 9.84 -4.048 13.2 -1.856 c13.856 9.104 28.72 3.392 42.832 3.44c26.96 0.048 52.528 -7.872 72.304 -26.656c23.136 -21.952 44.32 -45.984 66.176 -69.264 c3.776 -4.016 8.848 -5.68 12.96 -8.464c18.208 -12.416 26.688 7.408 31.008 13.696c8 11.664 -9.92 3.888 -13.216 9.568 c-0.784 1.344 -1.728 2.608 -2.672 3.872c-21.44 29.2 -53.888 47.936 -74.288 78.176c-2.48 3.664 -6.944 6.016 -10.64 8.768 c-17.856 13.216 -46.528 10.544 -55.056 37.68c-0.784 2.432 -5.856 5.104 -7.728 2.208c-6.368 -9.888 -7.984 -2.368 -11.216 2.176 c-10.432 14.752 -18.8 29.888 -20.816 48.672c-3.12 29.2 -13.984 56.048 -31.44 84.272c-10.848 -17.92 -24.768 -26.208 -42.048 -30.656 c-14.272 -3.68 -18.768 -25.44 -37.904 -22.304c-0.32 0.048 -1.984 -5.536 -2.336 -8.576c-3.584 -31.232 -15.584 -59.792 -26.304 -89.008 C102.384 147.76 114.704 126.224 132.832 126.256z"/><glyph unicode="&#xE03A;" glyph-name="estonia" horiz-adv-x="512" d="M109.888 172.384c11.52 22.88 34.48 24.64 52.832 34.288 c4.768 2.544 10.432 3.888 14.384 7.312c3.984 3.456 6.64 9.456 4.528 14.592c-2.224 5.392 -7.232 7.92 -13.216 3.728 c-7.744 -5.472 -16.608 -0.112 -24.672 -2.496c-0.288 5.68 4.208 8.24 8.048 9.872c5.552 2.416 12.72 2.32 11.712 11.216 c-0.768 6.88 -7.44 6.608 -11.328 9.728c-16.624 13.312 -24.512 -10.032 -38.64 -7.12c11.856 -5.664 26.592 -7.92 18.704 -26.336 c-9.6 -5.088 -19.712 -7.44 -30.592 -5.632c0 -7.888 0 -15.728 0 -23.616C125.696 197.504 106.944 183.008 109.888 172.384zM436.048 284.272c2.128 1.008 5.008 4.144 2.672 7.712 c-2.224 3.472 -4.592 4.416 -9.44 3.808c-23.2 -2.88 -45.776 -0.08 -68.688 5.76c-18.72 4.72 -40.16 14.944 -57.44 7.584 c-30.128 -12.896 -63.296 -9.424 -93.52 -24.848c-20.384 -10.368 -25.088 -20.432 -21.888 -38.544c2.592 -14.72 6.56 -29.312 19.344 -39.664 c12 -9.68 23.744 -2.192 37.552 2.208c-4.224 -14.112 -7.488 -25.056 -11.648 -38.976c46.064 14.912 56.976 16.592 84.176 -2.416 c18.688 -13.104 33.2 -24.752 59.584 -22.256c14.848 1.376 19.84 6.368 29.904 13.568c15.92 11.376 7.104 20.096 4.32 31.808 c-4.544 19.056 -14.8 41.04 -3.008 57.68C416.544 259.808 420.64 276.864 436.048 284.272z"/><glyph unicode="&#xE03B;" glyph-name="ethiopia" horiz-adv-x="512" d="M380.768 202.64c-1.6 8.464 -0.208 12.112 -9.872 11.184 c-17.872 -1.696 -14.56 9.824 -7.968 17.04c11.264 12.336 6.672 20.32 -3.248 29.248c-6.4 5.76 -12.864 11.664 -18.192 18.368 c-19.104 24 -48.368 15.136 -71.952 18.336c-14.288 1.952 -40.56 -10.416 -40.544 -37.696c0 -4.256 -3.936 -5.568 -6.016 -8.176 c-18.576 -23.184 -37.072 -46.896 -40.608 -77.776c-1.088 -9.52 2.08 -19.328 -13.44 -18.016c-6.208 0.512 -8.864 -6.56 -9.728 -11.6 c-1.104 -6.624 5.92 -5.696 9.76 -7.472c13.328 -6.128 25.024 -16.736 29.184 -29.024c13.92 -41.136 50.992 -49.04 83.92 -63.36 c26.976 -11.728 47.952 15.952 76.768 10.464c21.712 -4.144 42.432 24.144 69.552 19.168c2.304 -0.416 5.696 4.688 8.496 7.328 c20.448 19.28 40.896 38.56 61.328 57.84c-33.376 5.376 -59.648 18.624 -86.64 28.32C395.92 172.416 383.808 186.608 380.768 202.64z"/><glyph unicode="&#xE03C;" glyph-name="finland" horiz-adv-x="512" d="M220.352 40.384c23.52 4.736 46.704 11.216 70.32 15.296 c11.824 2 21.36 5.584 31.36 12.912c18.496 13.536 34.256 29.792 50.976 45.024c17.056 15.664 16.096 21.76 -3.232 36.256 c-3.952 3.008 -13.616 6.032 -9.376 10.656c13.264 14.368 -2.832 23.52 -6.704 31.952c-3.424 7.392 -5.328 15.152 -2.848 19.616 c8.88 16.064 1.696 28.672 -7.008 40.288c-7.776 10.368 -7.168 18.144 2.432 25.728c11.856 9.344 7.84 19.184 -2.432 23.712 C317.12 313.6 327.872 330.848 336.048 347.088c2.608 5.232 7.696 10.304 1.408 13.424c-11.264 5.584 -20.336 16.976 -35.088 14.432 c-17.712 -3.008 -33.888 -8.56 -35.504 -29.696c-1.008 -13.024 -13.328 -20.4 -18.832 -18.272c-19.648 7.632 -46.624 -10.176 -60.464 17.952 c-3.04 6.16 -11.136 4.944 -17.36 -2.192c-8.32 -9.44 1.632 -10.64 5.248 -13.136c7.648 -5.264 15.92 -10.096 24.624 -13.216 c13.088 -4.64 21.088 -11.376 20.944 -26.672c-0.144 -14.4 9.152 -26.976 4.72 -43.568c-2.656 -9.92 10.256 -21.104 23.056 -25.024 c10.656 -3.264 8.656 -11.664 7.776 -19.36c-0.496 -4.336 -2.976 -4.448 -5.552 -1.312c-0.592 2.224 -0.8 5.008 -3.952 3.504 c-1.232 -0.576 -2.272 -2.112 -2.832 -3.472c-8.288 -19.824 -25.024 -31.04 -41.68 -43.008c-21.616 -15.488 -39.648 -33.312 -21.68 -63.328 c1.968 -3.312 0.032 -9.184 -0.688 -13.84C177.376 62.368 202.464 36.832 220.352 40.384z"/><glyph unicode="&#xE03D;" glyph-name="france" horiz-adv-x="512" d="M161.504 213.312c9.136 -14.304 17.344 -24.736 14.928 -41.456 c-2.336 -16.192 -1.376 -33.2 -9.392 -48.08c-5.68 -10.56 3.68 -10.992 8.432 -15.088c18.736 -16.192 42.816 -9.664 64.112 -14.768 c16 -3.84 39.52 -19.328 43.968 15.76c0.8 6.304 10.576 8.096 18.08 8.368c12 0.496 23.28 -2.192 34.448 -6.224 c15.84 -5.68 42.544 5.648 48.976 20.16c2.704 6.128 -0.192 7.04 -5.184 9.536c-13.248 6.576 -12.448 17.04 -9.2 30.4 c2.784 11.616 4.992 28.592 -9.536 33.936c-13.344 4.912 -4.864 9.68 -1.872 12.56c14.4 14.032 22.832 30.656 31.488 48.96 c8.8 18.56 -0.176 18.912 -11.088 22.096c-40.368 11.808 -77.456 29.984 -111.232 55.072c-12.864 9.584 -23.92 6.528 -24.864 -9.392 c-0.928 -15.552 -7.056 -20.944 -21.248 -21.04c-5.616 -0.08 -11.152 -1.76 -13.696 -7.536c-8.192 -18.688 -19.744 -10.272 -29.824 -3.008 c-5.28 3.84 -8.992 9.168 -15.952 4.416C155.216 302.8 159.904 297.6 162.832 291.984c8.496 -16.224 4.576 -18.944 -13.904 -17.904 c-3.824 0.24 -6.976 1.68 -9.904 3.312c-4.912 2.72 -9.248 5.84 -15.2 4.224c-5.296 -1.312 -10.528 -3.024 -15.888 -3.792 c-7.216 -1.024 -17.008 2.528 -16.8 -10.24c0.176 -10.944 3.328 -18.864 15.984 -22.016C128.048 240.368 147.008 236.048 161.504 213.312zM441.536 94.416c-5.472 -7.712 -2.96 -16.256 1.456 -23.984 c2.4 -4.224 5.84 -8.368 10.96 -6.112c8.352 3.808 8.352 12.448 8.448 19.952c0.08 7.376 2.512 15.424 -4.672 24.704 C451.648 103.68 445.424 99.888 441.536 94.416z"/><glyph unicode="&#xE03E;" glyph-name="gabon" horiz-adv-x="512" d="M283.456 2.48c8.24 8.576 13.84 26.08 31.968 10.784 c5.328 -4.496 7.744 1.344 9.84 7.76c5.168 15.776 -8.176 24.672 -12.192 36.736c-7.216 21.776 -4.8 27.024 18.368 25.392 c10.992 -0.768 22.464 -1.568 26.224 12.576c1.52 5.664 -7.088 14.672 4.816 16.736c8.864 1.536 11.728 -6.448 14.896 -12.464 c10.048 -19.088 23.84 -23.248 41.76 -10.864c5.344 3.696 9.648 6.56 11.376 -2.672c1.2 -6.384 4.288 -10.736 11.104 -8.096 c4.944 1.92 6.848 6.704 9.408 11.872c11.696 23.664 13.232 48.032 13.616 73.984c0.24 15.456 -1.632 23.328 -14.832 31.456 c-22.576 13.92 -21.216 31.36 1.696 47.28c11.04 7.664 14.08 16.176 8.336 30c-8.896 21.296 -23.648 23.872 -41.376 15.664 c-18.688 -8.656 -22.032 0.896 -22.016 15.744c0.016 6.112 1.232 12.56 3.456 18.24c3.888 9.936 1.888 14.912 -9.328 15.296 c-27.44 0.864 -54.896 1.648 -82.288 3.104c-11.056 0.592 -14.864 -3.056 -15.28 -14.48c-0.656 -18.512 9.52 -44.4 -3.648 -53.568 c-13.328 -9.296 -37.776 -2.832 -57.376 -2.8c-6.912 0 -14.24 -2.56 -20.784 1.536c-4.896 3.056 -9.76 3.056 -11.248 -2.624 c-5.248 -20.256 -18.656 -37.568 -16 -61.04c2.096 -18.64 -10.928 -30.256 -29.136 -30.384C173.168 103.056 231.44 56.208 283.456 2.48z"/><glyph unicode="&#xE03F;" glyph-name="gambia" horiz-adv-x="512" d="M448.912 180.272c-5.728 2.8 -12.16 6.32 -17.952 3.76 c-35.328 -15.552 -61.2 8.64 -88.48 22.192c-22.336 11.088 -47.136 13.648 -61.248 -1.504c-16.96 -18.176 -33.728 -14.496 -52.16 -14.784 c-21.216 -0.336 -42.496 -1.04 -63.648 0.192c-19.872 1.168 -18.64 -7.696 -12.192 -20.864c1.872 -3.824 7.904 -5.376 6.256 -11.04 c-16.496 -10.72 -11.12 28.448 -31.344 12.832c-17.6 -13.6 -3.104 -26.672 -3.616 -40.912c29.52 9.328 57.424 8.24 85.424 6.864 c7.36 -0.352 19.952 -4.48 21.376 3.376c4.704 25.952 25.28 17.888 40.24 21.328c8.96 2.048 21.52 -2 26.224 6.88 c9.6 18.112 19.936 11.376 32.512 5.024c13.216 -6.672 27.68 -10.8 40.88 -17.488c25.056 -12.704 49.936 -9.952 75.072 -1.248 c5.584 1.936 12.544 1.968 12.608 11.056C458.88 173.6 454.912 177.328 448.912 180.272z"/><glyph unicode="&#xE040;" glyph-name="georgia" horiz-adv-x="512" d="M208.064 122.496c30.656 5.248 60.176 6.608 84.416 -18.144 c4.272 -4.352 11.104 -3.728 15.712 -2.032c24.832 8.864 54.096 -2.784 76.608 17.088c4.096 3.616 12.384 2.72 15.424 -1.28 c10.48 -13.696 27.296 -9.568 40.16 -15.936c6.848 -3.424 12.336 -2.624 15.92 3.904c3.68 6.784 0.448 11.264 -5.84 15.344 c-8.784 5.68 -22.256 10.4 -7.12 24.4c4.976 4.56 -2.032 7.84 -6.112 9.504c-14.096 5.76 -33.584 6.256 -27.92 30.352 c0.192 0.832 -3.264 3.056 -5.344 3.84c-26.288 9.744 -52.608 19.776 -80.4 4.752c-4.224 -2.272 -6.448 -3.024 -11.248 1.728 c-22.704 22.672 -50.24 36.592 -83.04 35.312c-12.832 -0.448 -24.256 1.472 -36.464 5.2c-18.512 5.632 -35.664 16.352 -56 15.936 c-6.192 -0.16 -13.52 2 -16.208 -5.584c-2.544 -7.184 5.136 -8.56 9.136 -11.712c8.64 -6.8 18.256 -11.424 28.864 -15.008 c37.696 -12.848 62.224 -67.216 38.896 -92.928C201.168 125.488 204.992 121.952 208.064 122.496z"/><glyph unicode="&#xE041;" glyph-name="germany" horiz-adv-x="512" d="M427.744 207.344c-12.912 16.208 -7.792 35.456 -11.792 52.88 c-2.144 9.36 -16.768 13.408 -12.272 20.336c22.56 34.704 -23.344 47.792 -22.464 75.28c0.048 1.808 -6.128 6.144 -9.712 2.496 c-15.152 -15.344 -38.032 -14.08 -54.592 -25.984c-7.184 -5.136 -13.888 -4.768 -21.76 -1.072c3.6 6.848 6.944 13.168 10.272 19.52 c-12.864 -9.792 -29.84 -9.248 -35.104 0.336c-13.408 24.48 -33.84 12.848 -53.984 15.424c16.912 -7.472 0.784 -18.912 5.808 -26.672 c4.32 -6.656 8.544 -12.848 -1.088 -16.176c-7.76 -2.752 -5.888 -19.344 -22.896 -10.64c-20.608 10.512 -29.376 1.248 -28.272 -22.144 c0.416 -8.624 -0.608 -17.792 -9.072 -22.56c-3.84 -2.208 -6.352 -2.816 -4.688 -7.984c5.232 -16.336 1.728 -22.928 -14.288 -25.952 c-4.768 -0.928 -12.64 -2.64 -10.192 -6c12.768 -17.568 -12.832 -39.296 7.008 -55.36c2.272 -1.856 1.808 -4.864 1.28 -8.32 c-4.832 -31.776 6.224 -46.24 38.224 -51.76c6.896 -1.184 13.632 -3.424 23.648 -5.952c-12.544 -12.992 -15.744 -27.328 -18.464 -42.096 c-2.64 -14.336 3.504 -20.4 16.4 -15.696c19.408 7.056 37.36 0.8 55.984 -2.112c7.008 -1.12 14.176 -10.08 15.024 -8.976 c14.128 18.192 35.088 -3.328 50.896 9.728c7.568 6.256 20.864 6.72 31.424 1.456c12.576 -6.256 13.872 -1.536 9.424 9.024 c-4.288 10.224 -4.992 15.536 8.272 22.096c26.016 12.912 25.088 15.584 1.152 34.144c-5.552 4.256 -12.128 7.456 -16.912 12.432 c-9.904 10.336 -20.08 28.944 -10.16 36.016c19.36 13.792 44.448 26.832 67.072 26.672C432.608 189.584 430.496 203.904 427.744 207.344z"/><glyph unicode="&#xE042;" glyph-name="ghana" horiz-adv-x="512" d="M180.544 125.088c-18.64 -29.68 -5.44 -54.864 7.872 -76.4 c10.72 -17.28 7.2 -22.24 -9.12 -31.296c12.304 -2.656 23.664 -2.4 31.84 -7.392c18.928 -11.552 33.632 -1.952 51.888 2.464 c41.712 10.096 75.28 43.328 120.768 40.848c10.928 -0.608 14.448 9.104 18.928 15.6c6.416 9.28 -6 11.984 -9.76 14.592 c-11.296 7.76 -20.336 18.88 -19.344 30.288c1.856 20.912 -0.304 41.616 0.832 62.352c0.368 6.592 9.088 11.92 2.96 19.472 c-18.144 22.208 -7.008 50.048 -13.808 74.768c-3.408 12.352 -0.56 25.552 -13.632 34.384c-5.76 3.92 -11.68 7.824 -7.952 18.992 c5.376 16.048 -6.08 19.264 -18.032 13.04c-10.448 -5.424 -20.592 -5.36 -31.488 -5.264c-28.32 0.272 -56.64 -0.8 -84.896 0.208 c-15.696 0.544 -21.888 -8.864 -17.968 -19.92c11.872 -33.488 3.6 -69.728 16.064 -102.976c2.88 -7.68 5.264 -20.192 1.264 -24.976 C192.208 166.272 191.552 142.624 180.544 125.088z"/><glyph unicode="&#xE043;" glyph-name="greece" horiz-adv-x="512" d="M166.512 323.84c-3.024 0.736 -3.376 -3.984 -3.792 -7.184 c-1.664 -12.912 -12.4 -19.968 -18.8 -29.808c-5.152 -7.872 -21.632 -18.928 -9.904 -27.216c15.168 -10.752 9.728 -31.504 27.616 -41.344 c8.016 -4.416 16.384 -10.912 26.432 -13.008c-14.752 -10.512 -26.816 -19.68 -4.944 -33.776c6.752 -4.384 6.096 -9.888 4.512 -17.872 c-1.52 -7.552 2.88 -23.408 14.224 -15.44c11.312 7.936 10.336 -1.088 13.776 -4.624c3.072 -3.104 0.576 -9.408 6.112 -11.808 c3.04 4.512 6.064 8.976 9.056 13.392c6.688 -2.928 7.696 -12.304 16.544 -13.024c3.12 15.52 -4.88 28.4 -9.248 42.032 c-0.08 0.08 -0.144 0.16 -0.224 0.24l0 0h0l0 0h0c0.224 0.352 0.464 0.672 0.704 0.976c0.208 0.272 0.4 0.448 0.624 0.656 c0.16 0.144 0.336 0.336 0.496 0.448c0.272 0.208 0.576 0.24 0.88 0.32c0.144 0 0.272 0.08 0.416 0.08 c0.464 -0.08 0.944 -0.304 1.488 -0.896c5.888 -6.304 12.88 -7.056 17.68 -0.72c5.92 7.84 -5.072 6.752 -7.248 10.48 c-1.84 3.12 -2.08 7.184 -3.024 10.88c5.824 0.704 10.88 6.224 17.568 1.92c5.696 -3.696 8.784 -11.104 16.88 -11.808 c0.88 7.76 -0.56 16.816 3.056 22.816c9.056 15.04 6.208 22.784 -10.944 26c-8.08 1.504 -16.816 6.128 -17.952 13.424 c-2.624 17.376 -15.872 27.328 -24.752 40.128c-6.96 10.032 -6.032 17.664 -0.816 25.664c1.888 -0.368 3.584 -1.024 5.12 -1.824 c0.672 -0.4 1.232 -0.896 1.856 -1.312c0.816 -0.528 1.696 -1.04 2.432 -1.696c0.08 -0.064 0.16 -0.192 0.256 -0.272 c7.728 -6.8 12.368 -17.456 24.576 -16.592c0.064 -0.08 0.144 -0.192 0.208 -0.272c0.032 -0.16 0.048 -0.384 0.08 -0.544 c-0.448 -0.656 -0.896 -1.344 -1.328 -2c0.56 -0.32 1.136 -0.576 1.696 -0.88c-0.128 0.912 -0.256 1.872 -0.368 2.832 c0.192 0.272 0.368 0.56 0.576 0.864h0.048c-0.352 -0.032 -0.608 0.08 -0.944 0.032c-0.56 0.768 -1.184 1.552 -1.76 2.32 c-0.08 0.08 -0.144 0.192 -0.224 0.272c-0.656 0.896 -1.232 1.76 -1.616 2.768c-1.536 4.032 2.048 3.424 3.888 3.232 c6.016 -0.608 5.728 -12.304 14.512 -8.496c-10 25.136 -3.28 39.808 20.976 41.008c17.328 0.848 35.824 5.2 52.176 -4.368 c9.824 -5.712 16.288 -0.448 18.848 6.336c2.944 7.792 4.944 14.72 11.2 21.36c6.368 6.816 -1.664 12.464 -7.888 15.824 c-3.824 2.128 -11.008 5.12 -11.408 -1.408c-1.696 -26.72 -26.032 -20.352 -34.144 -16.368c-28.448 14.064 -55.312 4.928 -83.216 2.928 c-11.712 -0.848 -17.52 -12.832 -29.664 -10.416C199.408 341.84 186.816 318.848 166.512 323.84zM350.496 69.648c-23.472 8.272 -50.16 4.688 -74.272 13.872 c-6.672 2.528 -10.624 -2.352 -12.384 -7.504c-1.632 -4.8 0.816 -9.872 6.272 -10.528c31.456 -3.68 61.68 -18.544 94.56 -10.064 c6.352 1.664 9.84 3.888 9.68 12.368C366.592 71.984 359.648 66.4 350.496 69.648zM384.288 242.528c-2.272 6.304 -5.152 14.192 -14.384 12.224 c-5.552 -1.184 -15.328 -1.76 -13.152 -9.456c2.064 -7.248 11.856 -8.912 18.32 -10.448C381.6 234.688 386.624 236.08 384.288 242.528zM467.6 103.68c-0.32 -3.456 1.712 -7.152 4.912 -6.064 c9.936 3.376 16.496 10.256 18.016 24.544C477.744 119.28 468.736 116.224 467.6 103.68z"/><glyph unicode="&#xE044;" glyph-name="greenland" horiz-adv-x="512" d="M354.832 208.08c-5.28 4.64 -16.16 11.984 2.448 14.224 c9.84 1.2 7.856 10.8 7.072 16.72c-1.968 14.96 -8.288 29.488 -12.96 43.2c-6.272 18.432 -10.912 35.184 -6.544 53.824 c1.408 6.032 -1.6 11.68 -4.96 9.392c-13.664 -9.424 -15.568 2.592 -22.128 9.12c-9.616 9.584 -20.272 11.952 -33.216 2 c-6.784 -5.216 -12.752 -17.824 -26.448 -10.672c-13.936 1.616 -29.536 -7.232 -33.04 -16.192c-5.376 -13.744 -12.256 -13.456 -23.328 -15.568 c-13.792 -2.608 -2.976 -18.336 -9.76 -26.624c-2.512 -3.072 -3.536 -12.912 5.44 -15.168c33.008 -8.336 22.672 -35.184 24.128 -56.768 c0.544 -8.08 -14.848 -20.512 6.672 -22.256c-0.336 -3.12 4.016 -9.04 -2.656 -8.496c-7.536 0.608 -9.92 -1.792 -4.368 -6.4 c13.776 -11.456 10.752 -19.104 -2.736 -27.872c-10.288 -6.672 -11.328 -20.176 -10.624 -29.808c1.808 -24.592 4.176 -50.032 15.664 -72.336 c6.624 -12.88 21.808 -22.432 34.624 -23.088c13.6 -0.656 9.072 18.016 13.712 27.632c9.968 20.672 7.008 50.208 38.496 56.576 c3.216 0.608 7.472 4.72 8.112 7.872c3.744 18.368 18.56 24.784 32.432 33.36C378.896 168.128 379.488 186.528 354.832 208.08z"/><glyph unicode="&#xE045;" glyph-name="grenada" horiz-adv-x="512" d="M353.68 86.336c8.992 4 12.384 9.12 13.488 18.928 c8.224 73.2 11.296 147.056 26.88 219.44c1.616 7.44 2.864 15.36 -9.536 20.16c-41.232 16.064 -80.272 27.904 -108.544 -20.864 c-1.152 -1.968 -3.12 -3.552 -4.976 -5.008c-56.64 -44.928 -75.456 -109.216 -88.704 -175.728c-6.976 -34.944 -4 -72.592 -34.048 -99.728 c-4.752 -4.256 -8.8 -10.944 -7.328 -20.176c48.016 0.704 95.04 4.032 138.672 27.6C303.664 63.92 328.688 75.184 353.68 86.336z"/><glyph unicode="&#xE046;" glyph-name="guatemala" horiz-adv-x="512" d="M384.048 137.008c21.536 11.552 38.896 29.008 57.872 44.176 c4.464 3.584 10.032 7.984 1.344 11.824c-8.08 3.632 -20.4 17.632 -22.992 9.84c-4.768 -14.448 -10.256 -5.952 -14.4 -3.68 c-6.768 3.68 -13.648 4.304 -20.512 3.456c-13.152 -1.664 -17.264 2.768 -16.448 16.416c2.496 40.736 0.128 81.728 5.072 122.384 c1.84 15.12 -1.52 22.704 -19.616 22.016c-37.728 -1.472 -75.552 -0.976 -113.312 -0.16c-12.848 0.24 -19.648 -2.768 -17.024 -16.608 c4.736 -24.752 -3.152 -37.184 -35.12 -28.704c11.648 -12.272 18.016 -20.224 25.712 -26.704c7.696 -6.576 16.544 -11.792 25.12 -17.28 c12.48 -8.08 14.368 -24.256 27.568 -33.104c8.224 -5.488 -3.44 -23.728 -15.392 -23.84c-24.384 -0.256 -48.8 -0.752 -73.152 0.192 c-11.888 0.448 -16.56 -5.344 -23.792 -13.792c-24.704 -28.704 -26.352 -62.576 -26.752 -97.232c-0.08 -8.272 -6.88 -15.872 4.448 -24.592 c34.336 -26.352 68.528 -50.496 115.184 -43.152c4.48 0.688 9.76 0.24 13.984 -1.456c18.224 -7.232 31.392 -16.528 51.68 5.84 c14.88 16.336 30.288 37.264 53.168 47.248c8.512 3.728 8.16 11.504 4.976 20.224C367.296 122.336 372.336 130.72 384.048 137.008z"/><glyph unicode="&#xE047;" glyph-name="guinea" horiz-adv-x="512" d="M167.344 191.616c0.432 -5.232 14.624 -26.192 21.296 -24.992 c18.368 3.28 38.976 -9.248 55.504 7.152c3.904 3.92 8.656 9.936 17.6 4.272c-11.648 -7.488 -10.56 -20.096 -5.584 -27.904 c5.44 -8.368 15.184 0.464 22.944 2.944c6 1.92 11.76 1.584 18.624 -4.368c-8.624 -2.448 -16.368 -3.392 -22.848 -6.8 c-8.96 -4.752 -21.328 -4.08 -12.144 -24.544c5.664 -12.672 14.032 -18.336 21.104 -27.392c14.752 -18.912 25.552 -18.688 36.464 2.176 c1.792 3.472 3.088 7.232 5.168 10.512c6.656 10.336 7.552 27.664 20.176 30.144c25.104 4.928 45.696 22.528 73.76 20.448 c28.272 -2.08 37.504 10.768 33.472 33.552c-1.888 10.496 -11.84 11.664 -16.912 18.304c-5.2 6.816 -8.624 13.008 3.6 13.888 c20.256 1.44 19.504 15.808 17.712 29.056c-1.872 13.68 -7.792 23.92 -25.76 21.616c-14.656 -1.856 -29.824 0.848 -44.752 0.272 c-47.76 -1.904 -97.76 10.464 -141.136 -21.328c-2.848 -2.08 -7.552 -1.808 -11.392 -2.208c-37.024 -4.016 -74.656 -4.192 -110.176 -16.64 c0.448 -0.624 1.2 -1.904 2.192 -2.848C139.184 214.896 165.008 219.264 167.344 191.616z"/><glyph unicode="&#xE048;" glyph-name="guinea1" horiz-adv-x="512" d="M149.152 203.696c-1.2 -6.32 6.064 -18.688 12.304 -21.072 c24.656 -9.456 36.72 -30.352 49.776 -50.192c5.472 -8.288 9.424 -6.64 14.528 -1.984c5.68 5.216 13.664 10.464 15.408 17.056 c6.416 24.624 28.176 16.576 43.312 22.016c25.024 9.008 33.984 -12.176 42.336 -27.216c7.824 -14.08 16.016 -30.992 3.024 -49.744 c44.08 14.032 61.664 12.8 59.104 -35.68c-0.544 -10.592 9.44 -10.72 13.776 -12.192c16.96 -5.76 21.872 25.984 43.28 15.28 c3.536 -1.76 4.576 11.872 7.76 17.984c1.376 2.72 1.68 4.912 -0.032 8.32c-6.704 13.344 -6.208 14.432 9.136 12.064 c6.4 -0.992 10.992 2.544 7.712 4.88c-16.256 11.568 1.92 36.096 -18.336 45.536c-2.192 1.008 -3.728 7.792 -2.576 10.752 c5.872 15.344 0.208 26.896 -4.928 42c-8.752 25.888 -24.512 48.16 -32.384 74.176c-2.736 8.992 -10.72 23.824 -22.8 2.848 c-4.032 -6.992 -16.096 -14.272 -28.32 -6.944c-15.312 9.152 -30.592 -14.064 -48.208 -0.624c-2.608 2 -15.664 -7.312 -14.48 9.152 c0.416 5.696 -5.408 4.944 -8.72 4.272c-27.68 -5.472 -53.264 2.144 -79.056 10.848c-10.992 3.712 -31.12 -17.168 -25.12 -25.92 c11.248 -16.4 3.456 -17.344 -10.464 -19.328c-17.152 -2.48 -30.304 -9.6 -40.064 -27.12C123.488 201.92 151.536 216.768 149.152 203.696z"/><glyph unicode="&#xE049;" glyph-name="guyana" horiz-adv-x="512" d="M331.12 144.912c-2.704 5.552 -0.096 14.272 -10.16 16.304 c-12.672 2.592 -17.648 14.192 -23.2 24.144c-6.24 11.216 4.16 45.216 14.096 48.16c17.168 4.96 30.512 46.96 16.336 57.328 c-16.448 12.032 -28.72 31.712 -51.968 33.312c-1.008 1.072 -2.112 2.08 -3.248 2.976c1.824 33.04 -26.016 43.152 -45.952 59.248 c-18.304 14.832 -22.944 -7.824 -34.016 -12.784c-4.224 -1.92 -8.208 -4.336 -12.176 -6.784c-6.8 -4.144 -12.336 -9.824 -11.312 -18.176 c1.072 -8.768 3.28 -17.824 16.992 -15.6c-6.384 -10.896 -14.448 -12.56 -23.008 -14.304C155.296 317.072 135.104 280.8 140 275.072 c12.064 -14.08 19.76 -35.968 44.8 -31.44c13.552 2.448 18.896 -4.272 14.848 -15.376c-4.368 -12.064 -0.288 -14.224 9.232 -20.672 c6.576 -4.496 15.68 -17.36 6.016 -32.096c-10.88 -16.56 -16.976 -35.504 -10.4 -56.88c7.6 -24.784 21.2 -44.192 42.752 -58.208 c7.872 0 15.744 0 23.6 0c-0.176 7.696 3.024 13.696 10.976 14.512c25.792 2.608 46.832 25.36 75.072 17.6 c1.776 -0.448 4.24 1.584 6.544 2.496C345.392 107.264 339.872 126.992 331.12 144.912z"/><glyph unicode="&#xE04A;" glyph-name="haiti" horiz-adv-x="512" d="M467.52 236.096c1.312 13.456 5.904 33.552 -15.92 36.896 c-30.208 4.608 -59.824 9.072 -88.48 21.408c-27.712 11.92 -57.088 7.136 -85.168 -2.304c-9.024 -3.04 -18.64 -7.232 -16.656 -19.408 c1.856 -11.584 13.312 -11.056 20.736 -11.424c19.52 -0.88 36.624 -7.568 53.488 -16.304c7.76 -4 11.024 -7.136 7.552 -17.664 c-9.312 -28.208 -2.464 -52.368 24.176 -68.784c1.296 -0.832 2.752 -1.776 3.6 -3.04c4.816 -7.216 21.296 -5.92 16.96 -18.64 c-3.504 -10.224 -15.456 -2.96 -23.136 -5.456c-4.304 -1.424 -9.568 -3.152 -11.952 -6.496c-6.912 -9.68 -16.256 -8.336 -25.552 -7.136 c-48 6.16 -96.464 9.328 -143.28 23.168c-8.912 2.608 -18.144 3.072 -27.84 1.152c-14.096 -2.864 -16.256 -14.448 -18.72 -24.352 c-2.496 -9.952 6.384 -14.64 14.608 -18.144c10.752 -4.656 22.624 -7.76 31.792 -14.528c15.232 -11.216 28.032 -26.72 44.24 -0.928 c2.688 4.304 12.88 4.368 19.76 5.536c18.272 2.992 36.096 -0.16 53.392 -5.68c18.544 -6 37.776 -6.56 55.92 -2.272 c36.304 8.608 71.44 15.296 101.008 -13.76c19.824 31.408 -12.608 44.288 -22.368 68.032c17.072 -0.976 29.488 7.328 28.56 20.352 c-1.216 17.648 -6.08 34 10.768 46.928c0.768 0.624 -0.736 6.384 -2.624 7.968C463.52 218.528 466.496 226.224 467.52 236.096zM324.64 150.432c3.792 -1.472 8.784 -5.264 11.552 1.68 c1.696 4.272 -0.192 7.68 -3.664 10.032c-12.32 8.24 -24.848 15.984 -38.992 18.688c-5.248 -0.624 -10.992 1.76 -13.408 -3.664 c-3.184 -7.2 3.104 -9.84 7.84 -11.952C300 159.936 312.304 155.072 324.64 150.432z"/><glyph unicode="&#xE04B;" glyph-name="honduras" horiz-adv-x="512" d="M273.664 136.48c13.6 -3.456 14.912 18.256 24.24 12.88 c27.52 -15.776 35.056 11.568 46.816 22.544c10.608 9.92 12.416 28.96 33.088 14.432c2.608 -1.856 8.72 1.36 13.248 2.032 c21.648 3.056 40.928 13.008 62.064 20.672c-7.536 7.376 -10.432 21.04 -25.216 14.448c-3.824 -1.696 -6.112 -0.624 -7.056 2.72 c-7.68 26.976 -31.744 29.36 -52.96 32.816c-21.6 3.552 -46.16 8.656 -65.44 1.808c-27.248 -9.664 -54.112 -11.728 -79.648 -5.504 c-22.896 5.616 -37.008 -4.336 -52.848 -14.448c-12.512 -7.952 -23.504 -18.352 -36.032 -26.352c-15.744 -10.032 -5.184 -28.544 -14.224 -41.104 c-2 -2.816 49.792 -28.64 57.568 -27.056c10.416 2.128 26.784 -5.504 26.256 -6.672c-9.232 -19.536 10.304 -23.456 16.864 -33.984 c4.896 -7.792 10.944 -15.024 20.64 -11.072c10.576 4.272 18.416 13.12 20.336 24.592C262.784 127.76 257.28 140.64 273.664 136.48z"/><glyph unicode="&#xE04C;" glyph-name="hungary" horiz-adv-x="512" d="M448.512 263.696c-16.256 5.424 -24.112 31.824 -47.248 19.408 c-2 -1.072 -6.08 0.336 -8.576 1.728c-28.528 15.92 -45.312 14.144 -71.728 -5.92c-6.336 -4.768 -14.608 -6.448 -23.472 -7.712 c-18.864 -2.656 -41.216 0.72 -53.92 -19.984c-3.296 -5.344 -9.52 -5.056 -14.816 -5.216c-17.968 -0.592 -36.096 -2.336 -51.104 11.52 c-7.472 6.896 -15.712 5.232 -17.584 -4.8c-2.336 -12.304 -7.44 -13.536 -17.712 -9.424c-5.136 2.08 -12.112 2 -10.832 -6.448 c2.96 -19.568 -2.944 -37.312 -15.248 -45.024c9.696 -27.616 35.376 -40.256 56.048 -56.656c19.664 -15.616 41.92 -24.288 71.008 -10.88 c23.232 10.688 49.04 21.904 78.176 17.168c17.568 -2.832 37.168 2.048 49.024 18.4c10 13.808 17.808 29.184 26.576 43.856 c10.88 18.304 17.792 39.952 44.512 42.848C448 247.216 457.2 260.784 448.512 263.696z"/><glyph unicode="&#xE04D;" glyph-name="iceland" horiz-adv-x="512" d="M162.768 159.376c-4.32 -0.976 -12.656 5.792 -11.984 -4.448 c0.608 -9.072 9.456 -6.896 15.072 -6.192c22.208 2.88 41.392 -1.632 62.4 -11.616c20.672 -9.888 47.232 -18.752 70.096 -3.888 c24.832 16.144 53.072 24.304 79.84 34.128c22.288 8.24 37.008 21.056 50.48 37.824c11.088 13.776 6.576 26.864 -8.416 34.784 c-14.464 7.632 -28.656 17.008 -22.592 39.184c-13.152 -7.312 -23.968 -10.304 -35.008 3.872c-5.072 6.496 -18.112 8.528 -19.184 -7.536 c-0.208 -3.216 -0.032 -6.528 -3.712 -7.424c-19.792 -4.64 -41.328 -8.224 -59.76 -3.216c-18.752 5.056 -23.744 -2.976 -30.56 -15.68 c-9.904 5.36 -24.464 33.008 -26.704 -5.216c-0.288 -4.928 -15.744 -7.024 -23.12 -13.136c-2.752 -2.272 -5.968 6.144 -5.28 8.368 c7.664 25.52 -14.672 29.296 -28.16 38.416c-12.384 8.368 -14.96 6.8 -21.904 -8.864c-2.928 -6.608 -6.192 -1.44 -9.008 -1.12 c-7.12 0.864 -13.056 -1.584 -14.96 -8c-3.712 -12.336 -15.168 -17.6 -22.752 -26.256c23.92 -17.168 50.496 15.008 72.112 -4.752 c-9.68 -20.304 -29.2 -21.872 -48.688 -23.616c-3.824 -0.336 -9.104 -1.248 -8.624 -5.648c0.576 -5.296 6.208 -8.144 10.72 -5.536 c10 5.728 20.176 2.88 29.952 1.472c13.904 -1.968 19.424 -14.144 22.528 -25.568C177.488 162.72 168.896 160.768 162.768 159.376z"/><glyph unicode="&#xE04E;" glyph-name="india" horiz-adv-x="512" d="M435.264 269.568c-16.96 -2 -29.12 -10.688 -40.24 -19.872 c-15.744 -13.056 -20.832 -15.36 -33.264 -0.72c-5.92 6.912 -10.368 5.088 -10.16 -1.728c0.544 -16.912 -8.368 -13.008 -17.904 -10 c-15.984 5.152 -32.288 9.632 -48 15.536c-7.584 2.848 -21.792 8.8 -18.672 13.952c10.832 17.904 -4.08 20.368 -12.56 27.12 c-5.504 4.336 -2.576 8.16 -1.552 13.808c4.496 25.12 -8.832 37.104 -31.008 29.92c-3.68 -1.184 -8.032 -2.608 -11.488 -1.68 c-21.088 5.68 -18.4 -7.376 -14.608 -19.168c6.96 -21.568 -12.032 -61.104 -33.6 -63.952c-21.36 -2.896 -20.352 -11.824 -9.968 -25.088 c9.696 -12.416 10.336 -19.008 -8.384 -18.032c-5.92 0.336 -13.648 -1.296 -12.448 -9.36c3.344 -22.912 24.96 -35.648 49.552 -29.568 c-4.944 -52.336 27.008 -93.392 42.544 -139.424c3.28 -9.824 9.472 -12.72 20.704 -2.192c18.592 17.488 21.328 38.624 20.992 60.704 c-0.208 11.888 4.144 19.584 12.752 24.112c31.824 16.768 48.96 52.56 84.544 64.48c4.8 1.616 2.192 8.672 1.152 12.992 c-1.616 6.688 -5.376 13.008 -6.112 19.712c-0.784 6.896 7.024 17.712 9.136 14.64c8.192 -12 21.296 -3.808 31.936 -12.112 c-40.32 -20.944 10.88 -18.592 4.8 -31.232c19.76 18.432 20.48 46.272 41.744 60.032c5.632 3.648 13.328 8.368 9.168 11.36 C447.872 258.448 450.368 271.328 435.264 269.568z"/><glyph unicode="&#xE04F;" glyph-name="indonesia" horiz-adv-x="512" d="M201.888 189.648c-21.216 21.424 -45.584 33.584 -69.712 48.144 c23.216 -46.976 37.52 -64.608 66.72 -85.28c8 -10.608 18.992 -15.552 31.872 -17.2c28.736 -3.632 57.008 -11.68 83.056 -7.04 c-30.592 14.256 -67.856 16.576 -103.568 25.296C209.952 165.92 215.984 175.456 201.888 189.648zM437.152 183.904c-2.192 15.248 -13.136 4.768 -19.84 6.752 c-8.784 1.472 -17.584 2.88 -29.92 4.88c12.224 -15.696 18.368 -31.504 38.32 -34.272c8.528 -1.184 24.288 -4.256 22.288 -13.184 c-5.104 -22.976 13.008 -13.568 20.8 -19.008C470.832 181.712 477.232 177.68 437.152 183.904zM309.456 191.472c-6.032 -26.208 -6 -26.288 14.064 -31.2 c1.072 -0.272 1.472 -2.72 2.496 -3.888c2.928 -3.088 7.264 -4.72 10.576 -2.592c5.056 3.296 1.808 8.4 0.192 12.4 c-1.952 4.88 -9.424 8.56 -4.336 14.752c2.08 2.544 11.104 -1.536 8.768 6.224c-2 6.592 -9.232 4.784 -14.336 3.808 c-4.112 -0.8 -8.224 -4.8 -9.792 2.816c10.272 7.488 26.944 -5.616 36.208 13.36c-15.456 -6.864 -30.464 2.752 -43.52 -6.752 C309.712 197.392 310.112 194.32 309.456 191.472zM309.744 200.736c-0.48 0.112 -0.8 0.032 -1.216 0.112 c-2.736 2.976 -5.536 5.76 -7.296 9.344c-0.16 0.272 -0.336 0.496 -0.496 0.816c-0.528 1.344 -0.96 2.8 -1.152 4.4 c-0.656 5.664 0.896 12.816 -8.768 13.616c-8.4 0.688 -10.752 -4.88 -13.008 -10.592c-7.072 -17.76 -23.488 -15.008 -35.376 -12.08 c-14.624 3.632 -12.784 -2.416 -10.432 -10.96c1.616 -5.872 3.984 -11.792 7.344 -16.832c9.168 -13.84 25.728 -9.68 38.688 -13.84 c12.368 -3.952 8.336 11.84 13.296 17.152c4.336 4.592 3.76 14.352 9.264 17.904c1.84 1.184 4.336 1.648 7.952 1.024 c0.24 -0.24 0.464 -0.464 0.688 -0.736c0.192 0.128 0.336 0.16 0.528 0.32C309.744 200.496 309.744 200.624 309.744 200.736zM370.512 182.944c5.312 9.616 14.512 18.56 5.104 31.776 C363.184 205.216 365.024 194.384 370.512 182.944z"/><glyph unicode="&#xE050;" glyph-name="iran" horiz-adv-x="512" d="M403.984 268.096c-33.36 26.224 -65.248 26.176 -97.68 2.16 c-33.392 -24.704 -93.264 -5.216 -100.112 34.656c-3.104 18.144 -8.16 15.92 -18.368 8.24c-14.336 -10.768 -27.632 -15.168 -40.144 2.304 C144.24 320.224 140.432 319.392 135.744 315.984C131.2 312.64 130.064 309.424 131.376 304.144c5.744 -23.2 9.008 -47.568 28.32 -64.672 c4.768 -4.192 7.152 -9.84 3.92 -13.712c-21.008 -25.36 0.384 -37.04 16.096 -49.584c8.896 -7.072 14.928 -12.912 16.192 -25.856 c0.768 -7.808 3.424 -26.48 15.936 -23.872c26.752 5.584 30.992 -13.392 42.256 -28.816c15.12 -20.752 38.24 -37.952 63.168 -36.656 c20.432 1.024 34.512 14.432 50.16 -14.416c8.4 -15.52 42.256 -8.752 64.432 -13.328c14.336 -2.928 6.112 15.52 14.224 20.048 c1.344 0.784 2.624 1.776 3.872 2.672c6.192 4.416 11.728 22.208 10.656 29.344c-0.976 6.384 -4.704 8.496 -9.376 11.888 c-14.272 10.256 -31.2 20.672 -10.912 40.88c3.984 3.968 5.824 12.528 -0.512 14c-22.144 5.024 -12.032 23.44 -15.92 35.664 c-5.6 17.728 9.504 32.288 10.16 54.288C438.112 260.96 415.008 259.424 403.984 268.096z"/><glyph unicode="&#xE051;" glyph-name="iraq" horiz-adv-x="512" d="M117.088 129.056c19.536 -2.816 37.408 -9.296 54.88 -18.928 c40.992 -22.464 74.992 -54.128 111.872 -81.952c21.792 -16.448 46.688 -10.8 70.288 -12.08c15.952 -0.832 18.768 16.448 24.944 27.824 c4.864 8.928 12.656 12.032 21.68 8.8c8.368 -2.992 16.56 -2.992 28.176 -2.832c-3.312 6.144 -4.864 9.648 -6.896 12.784 c-10.224 15.68 -22.944 29.712 -18.48 51.504c2.976 14.416 -8.64 25.168 -18.784 32.128c-16.4 11.232 -33.472 18.304 -44.848 38.24 c-16.912 29.68 -20.448 33.008 2.304 59.888c9.072 10.672 -5.184 22.288 3.84 31.84c-28.176 1.472 -33.504 25.216 -43.376 44.496 c-2.048 4 -2.832 10.304 -8.816 9.008c-15.248 -3.344 -28.512 5.296 -43.2 6.16c-14.176 0.8 -68.864 -25.744 -73.68 -39.328 c-1.248 -3.488 -1.008 -7.792 -0.656 -11.648c3.184 -33.888 1.264 -64.704 -38.576 -77.744c-10.976 -3.584 -20.96 -10.64 -30.8 -17.008 c-6.992 -4.56 -20.944 -6.304 -14.224 -19.536C100 156.416 91.888 132.72 117.088 129.056z"/><glyph unicode="&#xE052;" glyph-name="ireland" horiz-adv-x="512" d="M193.6 37.168c43.36 -1.84 78.864 20.672 115.552 38.288 c20.944 10.032 41.44 21.584 64.8 21.008c20.752 -0.496 33.856 5.616 37.344 26.624c3.12 18.944 20.624 34.464 14.032 55.408 c-6.752 21.488 -2.608 45.696 -16.064 65.344c-6.8 9.936 7.616 9.248 7.344 19.472c-21.232 -4.064 -34.928 4.496 -45.728 21.872 c-7.6 12.192 -15.968 6.848 -19.664 -4.56c-4.672 -14.368 -14.48 -14.368 -26.016 -10.784c-13.568 4.24 -22.56 13.872 -31.2 25.008 c33.232 15.696 42.432 52.688 73.904 68.208c-13.952 10.368 -21.984 11.792 -37.664 5.872c-25.664 -9.68 -55.456 -7.984 -65.136 -42 c-1.376 -4.8 -14.672 -3.184 -11.904 -11.328c2.688 -8 12.848 -6.864 20.224 -8.336c3.744 -0.736 9.216 4.96 11.296 -3.232 c-16.368 -11.84 -30.624 -28.864 -53.952 -25.2c-15.952 2.528 -31.6 3.952 -47.92 2.768c-21.536 -1.552 -18.88 -9.552 -8 -21.28 c-4.448 -6.048 -12.832 1.376 -16.784 -5.968c10.512 -10.4 24.048 -11.136 38.384 -12.48c-15.184 -1.472 -17.072 -15.792 -25.568 -23.056 c-9.952 -8.448 -10.224 -12.528 3.584 -17.552c19.52 -7.152 38 -17.232 60.752 -15.12c-10.224 -5.056 -23.328 -6.672 -26.336 -17.904 c-3.024 -11.248 -7.184 -20.512 -17.456 -25.776c-9.392 -4.816 -10.992 -10.064 -3.28 -17.6c-10 -3.968 -6.704 -26.432 -26.48 -18.192 c-4.784 1.968 -13.68 -2.8 -13.904 -11.2c7.008 -6.816 15.44 0.144 23.664 -3.888c-6.88 -5.392 -13.744 -10.032 -19.744 -15.616 c-4.528 -4.272 -6.656 -11.68 2.384 -10.912c13.6 1.184 13.12 -22.72 29.344 -14.528c2.976 1.504 3.392 -3.216 2.592 -4.608 C179.488 34.832 187.248 37.392 193.6 37.168z"/></font>
</defs>
</svg>
