<?xml version="1.0" standalone="no"?>
<!DOCTYPE svg PUBLIC "-//W3C//DTD SVG 1.1//EN" "http://www.w3.org/Graphics/SVG/1.1/DTD/svg11.dtd" >
<svg xmlns="http://www.w3.org/2000/svg">
<metadata>Generated by IcoMoon</metadata>
<defs>
<font id="dt-icons" horiz-adv-x="512">
<font-face units-per-em="512" ascent="480" descent="-32" />
<missing-glyph horiz-adv-x="512" />
<glyph unicode="&#x20;" d="" horiz-adv-x="256" />
<glyph unicode="&#xe600;" d="M170.667 407.996h-67.721c-51.2 0-67.721-17.613-69.871-68.54l-0.41-35.976c0-50.654 18.023-66.15 69.769-66.15l69.325 0.069c51.712-0.069 68.779 15.394 68.779 66.594v35.464c0 49.869-19.183 68.54-69.871 68.54zM200.499 316.757l-0.512 4.335c0.239-10.683 2.117-32.017-5.325-38.434-7.475-9.046-26.727-5.871-41.608-5.871l-37.854-0.546c-14.848 0-23.825 0-32.529 6.929-9.079 8.534-8.534 20.923-8.534 35.738l-0.546 4.847c0 14.848-2.117 26.112 6.417 36.761 11.195 8.534 21.948 6.929 36.795 6.929l40.005-0.546c14.814 0 28.262 3.208 36.796-6.929 10.649-11.195 6.895-28.33 6.895-43.213zM170.667 203.196h-67.721c-51.2 0-67.721-17.613-69.871-68.54l-0.41-36.010c0-50.654 18.023-66.15 69.769-66.15l69.325 0.068c51.712-0.034 68.779 15.428 68.779 66.629v35.464c0 49.869-19.183 68.54-69.871 68.54zM200.499 111.855l-0.512 4.438c0.239-10.683 2.117-32.017-5.325-38.434-7.475-9.079-26.727-5.871-41.608-5.871l-37.854-0.615c-14.848 0-23.825 0-32.529 6.929-9.079 8.534-8.534 20.923-8.534 35.738l-0.546 4.881c0 14.882-2.117 26.146 6.417 36.796 11.195 8.534 21.948 6.929 36.795 6.929l40.005-0.615c14.814 0 28.262 3.209 36.796-6.929 10.649-11.161 6.895-28.296 6.895-43.247zM407.995 203.196h-67.721c-51.2 0-67.687-17.613-69.871-68.54l-0.409-35.976c0-50.62 17.988-66.15 69.769-66.15l69.291 0.068c51.746-0.068 68.813 15.394 68.813 66.594v35.464c0 49.869-19.183 68.539-69.871 68.539zM437.829 111.855l-0.512 4.438c0.205-10.683 2.116-32.017-5.325-38.434-7.475-9.079-26.726-5.871-41.608-5.871l-37.854-0.615c-14.882 0-23.825 0-32.529 6.929-9.079 8.534-8.534 20.923-8.534 35.738l-0.546 4.881c0 14.882-2.116 26.146 6.417 36.796 11.195 8.534 21.947 6.929 36.796 6.929l40.005-0.615c14.814 0 28.262 3.209 36.796-6.929 10.683-11.161 6.895-28.296 6.895-43.247zM407.995 407.996h-67.721c-51.2 0-67.687-17.613-69.871-68.54l-0.409-35.976c0-50.654 17.988-66.15 69.769-66.15l69.291 0.069c51.746-0.069 68.813 15.394 68.813 66.594v35.464c0 49.869-19.183 68.54-69.871 68.54zM437.829 316.689l-0.512 4.403c0.205-10.684 2.116-32.017-5.325-38.434-7.475-9.079-26.726-5.871-41.608-5.871l-37.854-0.58c-14.882 0-23.825 0-32.529 6.929-9.079 8.534-8.534 20.923-8.534 35.737l-0.546 4.847c0 14.882-2.116 26.146 6.417 36.796 11.195 8.534 21.947 6.929 36.796 6.929l40.005-0.581c14.814 0 28.262 3.209 36.796-6.929 10.683-11.196 6.895-28.331 6.895-43.247z" />
<glyph unicode="&#xe601;" d="M386.116 356.932l-44.476-42.359c-23.483 23.483-48.709 31.369-84.514 31.369-71.714 0-129.809-58.163-129.809-129.843v0l73.216-1.365-103.117-93.867-97.416 95.3 66.15-0.068c0 105.472 85.504 191.045 190.976 191.045 52.736 0 94.447-15.667 128.99-50.21zM512 221.867l-95.983 96.7-102.4-96.7 71.134 0.887c0 0 0 0.034 0 0 0-71.68-58.129-129.809-129.843-129.809-35.806 0-61.986 8.704-85.504 32.12l-39.254-42.632c34.543-34.509 72.055-50.722 124.757-50.722 105.506 0 190.976 85.606 190.976 191.044v0h49.391l16.725-0.887z" />
<glyph unicode="&#xe602;" d="M410.658 407.962l-308.258 0.034c-51.746 0-69.769-15.463-69.769-66.117l0.41-240.81c2.151-50.927 18.671-68.539 69.871-68.539h306.688c50.654 0 69.871 18.671 69.871 68.539v240.264c0 51.2-17.067 66.663-68.813 66.629zM432.538 80.521c-8.534-10.137-22.016-6.929-36.796-6.929l-278.938-0.546c-14.848 0-25.6-1.639-36.796 6.895-8.534 10.649-6.417 21.982-6.417 36.762l0.478 186.265h364.92l0.443-179.234c0-14.882 3.755-31.983-6.895-43.213zM248.525 271.462l-79.975-72.534 10.035-13.414 10.752-12.731 51.678 44.783-0.444-105.642c0-7.065 8.397-10.854 15.462-10.854s16.009 2.731 16.009 9.831v106.701l51.166-44.271 12.254 11.742c3.652 4.062 9.967 12.39 9.967 12.39l-80.179 74.24c-5.017 4.983-11.708 4.745-16.726-0.239z" />
<glyph unicode="&#xe603;" d="M403.832 301.5h-295.458c-66.15 0-66.15 0-67.653-64.819l-0.41-33.997c0-62.601 0-62.601 67.55-62.601l296.994 0.068c66.594-0.068 66.594-0.068 66.594 63.010v33.519c0 64.819 0 64.819-67.618 64.819zM46.934 70.383h418.134v-40.55h-418.134v40.55zM46.934 414.584h418.134v-41.779h-418.134v41.779z" />
<glyph unicode="&#xe604;" d="M409.6 442.129h-306.654c-51.2 0-67.721-17.613-69.871-68.54l-0.41-240.776c0-50.654 18.023-66.15 69.768-66.15l308.258 0.068c51.712-0.034 68.779 15.428 68.779 66.629v240.231c0 49.869-19.217 68.539-69.871 68.539zM439.433 350.891l-0.512-200.465c0.239-10.683 2.116-32.017-5.325-38.434-7.475-9.079-26.726-5.871-41.608-5.871l-276.787-0.58c-14.848 0-23.825 0-32.529 6.929-9.079 8.534-8.534 20.923-8.534 35.738l-0.546 209.681c0 14.848-2.117 26.112 6.417 36.761 11.195 8.534 21.948 6.929 36.795 6.929l278.938-0.546c14.814 0 28.262 3.208 36.796-6.929 10.649-11.195 6.895-28.33 6.895-43.213zM210.296 16.179c0-13.346-10.82-24.166-24.166-24.166-13.346 0-24.166 10.82-24.166 24.166 0 13.346 10.82 24.166 24.166 24.166 13.346 0 24.166-10.82 24.166-24.166zM280.2 16.179c0-13.346-10.82-24.166-24.166-24.166-13.346 0-24.166 10.82-24.166 24.166 0 13.346 10.82 24.166 24.166 24.166 13.346 0 24.166-10.82 24.166-24.166zM348.467 16.179c0-13.346-10.82-24.166-24.166-24.166s-24.166 10.82-24.166 24.166c0 13.346 10.82 24.166 24.166 24.166 13.346 0 24.166-10.82 24.166-24.166zM170.838 297.199l-21.538 19.763c0 0-56.15-60.621-57.549-61.099l58.436-64.034 20.992 22.87-37.718 39.697 37.376 42.803zM360.517 316.962l-21.435-19.763 37.342-42.803-37.752-39.697 20.958-22.835 58.471 64c-1.399 0.478-57.583 61.099-57.583 61.099z" />
<glyph unicode="&#xe605;" d="M447.079 319.454l-205.415 130.116-205.415-130.116 205.415-130.082 205.415 130.082zM241.664 406.392l137.216-86.903-137.216-86.971-137.216 86.938 137.216 86.938zM405.947 247.979l41.13-26.078-205.415-130.116-205.415 130.116 41.13 26.078 164.284-104.072 164.284 104.072zM405.947 150.392l41.13-26.043-205.415-130.15-205.415 130.15 41.13 26.043 164.25-104.038 164.318 104.038z" />
<glyph unicode="&#xe606;" d="M409.6 407.996h-306.654c-51.2 0-67.721-17.613-69.871-68.54l-0.41-240.776c0-50.62 18.023-66.15 69.768-66.15l308.258 0.068c51.712-0.068 68.779 15.394 68.779 66.594v240.264c0 49.869-19.217 68.54-69.871 68.54zM82.671 78.336c-9.079 8.534-8.534 20.923-8.534 35.738l-0.546 209.681c0 14.848-2.117 26.112 6.417 36.761 11.195 8.534 21.948 6.929 36.796 6.929l185.071-0.375v-295.288l-186.675-0.409c-14.848 0.034-23.825 0.034-32.529 6.963zM439.433 316.757l-0.512-200.465c0.239-10.683 2.116-32.017-5.325-38.434-7.475-9.079-26.726-5.871-41.608-5.871l-57.071-0.137v295.151l60.791-0.103c14.814 0 28.262 3.209 36.796-6.929 10.683-11.195 6.929-28.33 6.929-43.213z" />
<glyph unicode="&#xe607;" d="M382.567 153.771c-15.599 0-29.526-6.622-39.526-17.339l-148.275 76.459c0.375 2.935 0.649 5.905 0.649 8.977s-0.273 6.042-0.683 8.977l148.275 76.425c10.001-10.649 23.928-17.306 39.526-17.306 30.378 0 55.023 25.395 55.023 56.764s-24.61 56.73-54.989 56.73-55.057-25.395-55.057-56.73c0-3.072 0.273-6.076 0.717-8.977l-148.31-76.459c-9.967 10.684-23.995 17.339-39.56 17.339-30.379 0-55.023-25.429-55.023-56.764 0-31.368 24.644-56.729 55.023-56.729 15.565 0 29.56 6.587 39.56 17.305l148.31-76.459c-0.478-2.901-0.717-5.905-0.717-8.977 0-31.334 24.712-56.729 55.057-56.729s55.023 25.395 55.023 56.73c0 31.368-24.644 56.764-55.023 56.764z" />
<glyph unicode="&#xe608;" d="M409.6 407.996h-306.654c-51.2 0-67.721-17.613-69.871-68.54l-0.41-240.776c0-50.62 18.023-66.15 69.768-66.15l308.258 0.068c51.712-0.068 68.779 15.394 68.779 66.594v240.264c0 49.869-19.217 68.54-69.871 68.54zM439.433 316.757l-0.512-200.465c0.239-10.683 2.116-32.017-5.325-38.434-7.475-9.079-26.726-5.871-41.608-5.871l-276.787-0.615c-14.848 0-23.825 0-32.529 6.929-9.079 8.534-8.534 20.923-8.534 35.738l-0.546 209.715c0 14.848-2.117 26.112 6.417 36.762 11.195 8.534 21.948 6.929 36.795 6.929l278.938-0.546c14.814 0 28.262 3.209 36.796-6.929 10.649-11.196 6.895-28.331 6.895-43.213zM187.529 290.065c0-15.665-13.020-28.365-29.082-28.365-16.061 0-29.082 12.7-29.082 28.365 0 15.666 13.020 28.365 29.082 28.365 16.061 0 29.082-12.699 29.082-28.365zM249.583 194.492l-35.43 43.281-81.954-107.759 268.39 1.399-96.939 152.679z" />
<glyph unicode="&#xe609;" d="M409.6 407.996h-306.654c-51.2 0-67.721-17.613-69.871-68.54l-0.41-240.776c0-50.654 18.023-66.15 69.768-66.15l308.258 0.068c51.712-0.034 68.779 15.428 68.779 66.629v240.231c0 49.869-19.217 68.539-69.871 68.539zM80.008 360.516c11.195 8.534 21.948 6.929 36.796 6.929l278.938-0.546c14.814 0 28.262 3.208 36.796-6.929 10.649-11.195 6.895-28.33 6.895-43.213l-0.103-44.237h-365.602l-0.136 51.234c0 14.848-2.117 26.112 6.417 36.761zM433.596 77.858c-7.475-9.079-26.726-5.871-41.608-5.871l-276.787-0.58c-14.848 0-23.825 0-32.529 6.929-9.079 8.534-8.534 20.923-8.534 35.738l-0.307 118.442h365.397l-0.307-116.224c0.239-10.683 2.116-32.017-5.325-38.434zM206.917 339.729h198.963v-33.075h-198.963v33.075zM103.458 342.392h61.85v-35.737h-61.85v35.738z" />
<glyph unicode="&#xe60a;" d="M94.242 98.509c-14.848-14.779-14.848-38.878 0-53.692 14.848-14.882 38.946-14.882 53.76 0l70.383 70.075-53.726 53.692-70.417-70.076zM473.122 306.688c0 0-19.387-12.971-35.123 2.765-17.238 17.203-12.185 42.803-50.279 71.51-67.174 50.585-168.311 0.785-168.311 0.785 80.418-7.987 114.722-43.964 81.442-77.175l-35.84-35.942 53.829-53.794c0 0 27.375 27.306 35.43 35.464 14.609 14.609 28.536 17.784 39.765 6.622 12.356-12.391 1.979-27.306 1.979-27.306l24.064-24.064 77.142 77.005-24.098 24.132zM205.039 284.16c-8.84 8.807-13.381 21.095-12.424 33.519 1.843 23.552-6.28 47.719-24.269 65.775-23.313 23.347-57.173 30.106-86.698 19.899l53.316-53.282c1.229-20.822-30.925-52.975-51.712-51.746l-53.282 53.282c-10.172-29.354-3.515-63.249 19.9-86.664 16.35-16.35 37.785-24.507 59.222-24.507 5.905 0 24.269 3.618 40.038-12.151l183.399-183.365c15.326-15.428 40.38-15.428 55.842 0 15.428 15.462 15.428 40.517 0 55.945l-183.33 183.296z" />
<glyph unicode="&#xe60b;" d="M409.6 407.996h-306.654c-51.2 0-67.721-17.613-69.871-68.54l-0.41-240.776c0-50.62 18.023-66.15 69.768-66.15l308.258 0.068c51.712-0.068 68.779 15.394 68.779 66.594v240.264c0 49.869-19.217 68.54-69.871 68.54zM174.934 71.544l-59.733-0.137c-14.848 0-23.825 0-32.529 6.929-9.079 8.534-8.534 20.923-8.534 35.738l-0.136 52.327h100.933v-94.856zM307.2 71.817l-102.4-0.205v94.788h102.4v-94.584zM433.596 77.858c-7.475-9.079-26.726-5.871-41.608-5.871l-54.921-0.137v94.55h101.99l-0.137-50.108c0.239-10.683 2.116-32.017-5.325-38.434zM439.433 316.757l-0.307-117.282h-365.226l-0.307 124.279c0 14.848-2.117 26.112 6.417 36.762 11.195 8.534 21.948 6.929 36.795 6.929l278.938-0.546c14.814 0 28.262 3.209 36.796-6.929 10.649-11.195 6.895-28.33 6.895-43.213z" />
<glyph unicode="&#xe60c;" d="M479.642 50.176v-17.374h-66.935v17.374h6.11c4.95 0 8.499 5.188 6.827 10.171l-9.796 29.935h-42.906l-11.059 32.086h44.168l-30.959 104.482-23.859-64.102-16.657 39.936 24.2 62.567 34.133-2.117 67.857-202.24c2.116-6.417 7.817-10.683 14.267-10.683h4.608v-0.034zM364.954 63.829h8.295v-31.027h-124.996v31.027h10.855c8.806 0 14.95 9.182 12.151 17.92l-15.702 48.128h-119.808l-15.667-48.128c-2.867-8.772 3.311-17.92 12.151-17.92h10.821v-31.027h-124.962v31.027h8.294c11.367 0 21.573 7.577 25.361 18.841l105.915 315.836h76.015l105.95-315.836c3.789-11.264 13.892-18.841 25.327-18.841zM154.897 192.171h81.51l-40.755 128.546-40.755-128.546z" />
<glyph unicode="&#xe60d;" d="M409.6 407.996h-306.654c-51.2 0-67.721-17.613-69.871-68.54l-0.41-240.776c0-50.62 18.023-66.15 69.768-66.15l308.258 0.068c51.712-0.068 68.779 15.394 68.779 66.594v240.264c0 49.869-19.217 68.54-69.871 68.54zM439.433 316.757l-0.512-200.465c0.239-10.683 2.116-32.017-5.325-38.434-7.475-9.079-26.726-5.871-41.608-5.871l-276.787-0.615c-14.848 0-23.825 0-32.529 6.929-9.079 8.534-8.534 20.923-8.534 35.738l-0.546 209.715c0 14.848-2.117 26.112 6.417 36.762 11.195 8.534 21.948 6.929 36.795 6.929l278.938-0.546c14.814 0 28.262 3.209 36.796-6.929 10.649-11.196 6.895-28.331 6.895-43.213zM129.605 306.654h253.883v-33.075h-253.883v33.075zM129.605 238.387h253.883v-33.075h-253.883v33.075zM129.605 170.121h187.733v-33.144h-187.733v33.144z" />
<glyph unicode="&#xe60e;" d="M407.995 196.267h-305.050c-35.43 0-67.413-28.433-69.871-62.567l-0.41-32.837c0-30.413 34.85-60.416 69.768-60.416l306.62 0.068c34.611-0.034 68.813 32.632 68.813 60.825v32.358c0 31.539-34.202 62.567-69.871 62.567zM407.995 407.996h-305.050c-33.963 0-66.697-31.846-69.871-68.54l-0.41-35.976c0.717-31.13 37-66.15 69.768-66.15l306.62 0.069c33.962-0.102 69.529 33.553 68.813 66.594v35.464c0.717 35.294-32.7 68.54-69.871 68.54zM437.829 316.689l-0.512 4.403c0.205-10.684 2.116-32.017-5.325-38.434-7.475-9.079-26.726-5.871-41.608-5.871l-275.183-0.546c-14.848 0-23.825 0-32.529 6.929-9.079 8.534-8.534 20.923-8.534 35.738l-0.546 4.813c0 14.882-2.117 26.146 6.417 36.796 11.195 8.534 21.948 6.929 36.795 6.929l277.334-0.58c14.814 0 28.262 3.209 36.796-6.929 10.683-11.195 6.895-28.33 6.895-43.247z" />
<glyph unicode="&#xe60f;" d="M409.6 407.996h-306.654c-51.2 0-67.721-17.613-69.871-68.54l-0.41-240.776c0-50.654 18.023-66.15 69.768-66.15l308.258 0.068c51.712-0.034 68.779 15.428 68.779 66.629v240.231c0 49.869-19.217 68.539-69.871 68.539zM80.008 360.516c11.195 8.534 21.948 6.929 36.796 6.929l278.938-0.546c14.814 0 28.262 3.208 36.796-6.929 10.649-11.195 6.895-28.33 6.895-43.213l-0.443-179.2h-364.92l-0.478 186.197c0 14.848-2.117 26.112 6.417 36.761zM265.591 172.032l80.179 74.24c0 0-6.315 8.328-9.967 12.391l-12.254 11.742-51.166-44.271v106.701c0 7.1-8.943 9.831-16.009 9.831-7.065 0-15.463-3.789-15.463-10.855l0.444-105.642-51.678 44.783-10.752-12.766-10.035-13.38 79.975-72.534c5.018-5.017 11.707-5.188 16.726-0.239z" />
<glyph unicode="&#xe610;" d="M315.187 240.811h49.937l-109.159-109.398-109.125 109.397h49.903v192.273h118.443v-192.273zM345.019 398.438v-46.114c42.394-28.979 69.12-76.902 69.12-130.833 0-42.223-16.384-81.988-46.285-111.855-29.866-29.866-69.598-46.353-111.889-46.353-42.257 0-81.988 16.486-111.889 46.353s-46.319 69.632-46.319 111.855c0 53.794 26.658 101.786 69.154 130.833v46.114c-64.648-32.632-108.987-99.635-108.987-176.981 0-109.363 88.678-198.042 198.042-198.042 109.397 0 198.11 88.678 198.11 198.042 0 77.38-44.373 144.35-109.056 176.981z" />
<glyph unicode="&#xe611;" d="M426.816 327.968c0 0-105.632 0-137.728 0v83.072c2.24 37.44-8.512 68.96-31.552 68.96-40-0.064-38.88-32.32-38.88-32.32-7.136-114.528-102.656-148.192-102.656-148.192l-0.192-244.864 5.184 0.864c115.040 0 45.024-62.048 234.080-62.048 143.488 0 146.272 126.368 146.272 212.864 0.032 86.592-39.392 121.664-74.528 121.664zM39.328 23.808c19.968 0 33.184 13.888 33.184 30.688l-0.512 242.496c0 16.768-12.704 30.048-32.672 30.048-20.032 0-36.32-13.664-36.32-30.432v-242.368c0-16.768 16.288-30.432 36.32-30.432z" />
<glyph unicode="&#xe612;" d="M222.272 400.64c0 42.432-36.928 79.36-79.392 79.36s-79.392-36.928-79.392-79.36c0-42.496 36.896-79.392 79.392-79.392 42.464 0 79.392 36.864 79.392 79.392zM277.824 98.976c0 127.008-65.92 190.528-138.912 190.528-72.992-0.032-138.912-63.52-138.912-190.528 0-87.040 277.824-87.040 277.824 0zM373.088 259.456c42.464 0 79.328 36.864 79.328 79.392 0 42.496-36.864 79.36-79.328 79.36-42.496 0-79.328-36.864-79.328-79.36s36.832-79.392 79.328-79.392zM369.12 227.712c-21.952 0-43.008-6.432-62.016-17.952 11.488-31.008 18.336-67.712 18.336-110.816 0-42.784-28.544-76.064-77.44-95.136 60.672-51.36 260-40.448 260 33.376 0.032 127.040-65.888 190.528-138.88 190.528z" />
<glyph unicode="&#xe613;" d="M151.968 44.352c-20.576 0-37.248-16.672-37.248-37.152 0-20.672 16.672-37.344 37.248-37.344 20.608 0 37.248 16.672 37.248 37.344 0 20.48-16.64 37.152-37.248 37.152zM259.712 44.352c-20.544 0-37.248-16.672-37.248-37.152 0-20.672 16.704-37.344 37.248-37.344 20.608 0 37.248 16.672 37.248 37.344 0 20.48-16.64 37.152-37.248 37.152zM364.928 44.352c-20.64 0-37.248-16.672-37.248-37.152 0-20.672 16.64-37.344 37.248-37.344s37.248 16.672 37.248 37.344c0 20.48-16.608 37.152-37.248 37.152zM446.496 413.376h-376.384c-48 0-67.712-16.512-69.728-64.256l-0.384-225.76c0-47.456 21.12-62.016 69.632-62.016l377.92 0.064c48.448 0 64.448 14.496 64.448 62.496v225.216c0 46.752-17.984 64.256-65.504 64.256zM454.496 120.992l-399.040 0.512-0.96 234.016 400-1.536v-232.992z" />
<glyph unicode="&#xe614;" d="M321.984 185.344h-126.656l-0.672 37.984h-193.92v-158.816c0-48 15.776-64.512 66.272-64.512h377.504c52.48 0 67.488 15.488 67.488 79.488l-0.736 143.84-189.92 0.672 0.64-38.656zM448.512 350.976h-65.632v63.808c0 17.632-14.304 31.904-31.904 31.904h-191.456c-17.632 0-31.904-14.272-31.904-31.904v-63.808h-63.616c-48 0.032-63.264-14.976-63.264-62.464l-0.736-28.992 510.496 0.48v29.984c1.504 46.528-15.488 60.512-61.984 60.992zM328 351.104l-146.656 1.984v39.584h147.296l-0.64-41.568z" />
<glyph unicode="&#xe615;" d="M75.104 94.144c-16-15.904-16-41.952 0-57.92 16-16.064 42.016-16.064 57.984 0l75.904 75.616-57.952 57.92-75.936-75.616zM483.776 318.688c0 0-20.896-13.984-37.92 2.976-18.592 18.56-13.12 46.176-54.176 77.152-72.48 54.56-181.568 0.832-181.568 0.832 86.72-8.608 123.744-47.392 87.84-83.232l-38.624-38.752 58.048-58.016c0 0 29.504 29.44 38.208 38.24 15.744 15.744 30.752 19.168 42.816 7.136 13.376-13.344 2.176-29.472 2.176-29.472l25.952-25.952 83.232 83.040-25.984 26.048zM194.624 294.432c-9.504 9.504-14.4 22.72-13.376 36.128 1.984 25.376-6.752 51.456-26.144 70.944-25.184 25.184-61.728 32.48-93.568 21.44l57.504-57.44c1.344-22.464-33.344-57.152-55.776-55.808l-57.472 57.44c-10.944-31.648-3.776-68.192 21.472-93.472 17.632-17.6 40.736-26.4 63.872-26.4 6.4 0 26.208 3.936 43.2-13.12l197.792-197.728c16.544-16.672 43.52-16.672 60.192 0 16.704 16.672 16.704 43.68 0 60.352l-197.696 197.664z" />
<glyph unicode="&#xe616;" d="M32 198.848c0-22.144 17.984-40.192 40.192-40.192h48.384c22.176 0 40.192 18.016 40.192 40.192v48.352c0 22.208-18.016 40.192-40.192 40.192h-48.384c-22.208 0-40.192-18.016-40.192-40.192v-48.352zM32 40.192c0-22.176 17.984-40.192 40.192-40.192h48.384c22.176 0 40.192 18.016 40.192 40.192v48.352c0 22.176-18.016 40.192-40.192 40.192h-48.384c-22.208-0.032-40.192-18.016-40.192-40.192v-48.352zM192 40.192c0-22.176 17.984-40.192 40.192-40.192h48.384c22.176 0 40.192 18.016 40.192 40.192v48.352c0 22.176-17.984 40.192-40.192 40.192h-48.384c-22.208-0.032-40.192-18.016-40.192-40.192v-48.352zM351.264 40.192c0-22.144 17.984-40.192 40.192-40.192h48.384c22.176 0 40.16 18.016 40.16 40.192v48.352c0 22.176-17.984 40.192-40.192 40.192h-48.384c-22.176 0-40.192-17.984-40.192-40.192v-48.352zM192 198.848c0-22.144 17.984-40.192 40.192-40.192h48.384c22.176 0 40.192 18.016 40.192 40.192v48.352c0 22.208-17.984 40.192-40.192 40.192h-48.384c-22.208 0-40.192-18.016-40.192-40.192v-48.352zM351.264 198.848c0-22.144 17.984-40.192 40.192-40.192h48.384c22.176 0 40.192 18.016 40.192 40.192v48.352c0 22.208-17.984 40.192-40.192 40.192h-48.384c-22.176 0-40.192-17.984-40.192-40.192v-48.352zM32 358.848c0-22.144 17.984-40.192 40.192-40.192h48.384c22.176 0 40.192 18.016 40.192 40.192v48.352c0 22.208-18.016 40.192-40.192 40.192h-48.384c-22.208 0-40.192-18.016-40.192-40.192v-48.352zM192 358.848c0-22.144 17.984-40.192 40.192-40.192h48.384c22.176 0 40.192 18.016 40.192 40.192v48.352c0 22.208-17.984 40.192-40.192 40.192h-48.384c-22.208 0-40.192-18.016-40.192-40.192v-48.352zM351.264 358.848c0-22.144 17.984-40.192 40.192-40.192h48.384c22.176 0 40.16 18.016 40.16 40.192v48.352c0 22.208-17.984 40.192-40.192 40.192h-48.384c-22.176 0-40.192-17.984-40.192-40.192v-48.352z" />
<glyph unicode="&#xe617;" d="M414.368 380v63.744h-318.752v-63.744h-95.616v-63.744c0-52.8 42.816-95.616 95.616-95.616 9.984 0 19.648 1.536 28.672 4.384 23.040-32.896 58.112-56.704 98.848-64.992v-98.784h-31.872c-35.2 0-63.744-28.544-63.744-63.744h255.008c0 35.232-28.544 63.744-63.744 63.744h-31.936v98.784c40.768 8.288 75.84 32.096 98.816 64.96 9.056-2.848 18.72-4.384 28.704-4.384 52.8 0 95.616 42.816 95.616 95.616v63.776h-95.616zM95.616 258.464c-31.84 0-57.792 25.952-57.792 57.792v31.872h57.792v-31.872c0-20 3.712-39.168 10.432-56.8-3.392-0.64-6.848-0.992-10.432-0.992zM472.16 316.256c0-31.84-25.952-57.792-57.792-57.792-3.552 0-7.072 0.352-10.432 0.992 6.72 17.632 10.432 36.8 10.432 56.8v31.872h57.792v-31.872z" />
<glyph unicode="&#xe618;" d="M512 351.008h-94.016l0.992 93.056-418.080 1.952-0.896-347.008 103.328-0.352-0.672-98.656h409.344v351.008zM104 351.008l1.984-199.648-47.008 0.416-1.824 239.2 303.872-1.728 0.992-38.336-258.016 0.096zM243.616 235.904c0-21.76-17.664-39.392-39.392-39.392-21.76 0-39.392 17.632-39.392 39.392s17.632 39.392 39.392 39.392c21.728 0 39.392-17.632 39.392-39.392zM148.992 65.984l87.616 92.128 51.712-24.48 86.688 107.328 95.008-174.016-321.024-0.96z" />
<glyph unicode="&#xe619;" d="M284.027 430.933h-205v-378.472h40v338.472h205l-40 40zM326.108 317.264v-66.75h66.863v-191.581h-199.39v258.331h132.527zM351.108 357.264h-197.525v-338.331h279.39v256.581l-81.865 81.75z" />
<glyph unicode="&#xe61a;" d="M258.322 435.536l65.296-134.701 148.285-20.474-107.93-103.724 26.35-147.355-132.001 70.596-131.999-70.596 26.35 147.355-107.931 103.724 148.284 20.474z" />
</font>
</defs>
</svg>
